Вы используете незарегистрированную версию компонента "Вкладки"!

Поиск

(Free Jazz) Sun Ra - Piano Recital - Teatro La Fenice, Venezia - 2003, FLAC (tracks+.cue), lossless

(Free Jazz) Sun Ra - Piano Recital - Teatro La Fenice, Venezia - 2003, FLAC (tracks+.cue), lossless
Треклист:
Sun Ra / Piano Recital - Teatro La Fenice, Venezia
Жанр: Free Jazz
Страна-производитель диска: UK
Год издания: 2003
Издатель (лейбл): Golden Years Of New Jazz
Номер по каталогу: GY 21
Аудиокодек: FLAC (*.flac)
Тип рипа: tracks+.cue
Битрейт аудио: lossless
Продолжительность: 59:15
Источник (релизер): what.cd (worldwar4)
Наличие сканов в содержимом раздачи: нет
Треклист:
01 Free Improvisation 4:57
02 Blues 4:33
03 Love In Outer Space 5:15
04 Outer Spaceways Inc. 6:55
05 Take The "A" Train
Written-By – Strayhorn* 4:12
06 St Louis Blues
Written-By – Handy* 4:26
07 Penthouse Serenade
Written By – King
Written-By – Burton*, Jason* 5:52
08 Angel Race 3:57
09 Free Improvisation 4:07
10 Honeysuckle Rose
Written-By – Waller* 7:20
11 Friendly Galaxy / Spontaneous Simplicity 7:36
 
Лог создания рипа
X Lossless Decoder version 20120226 (139.1)
XLD extraction logfile from 2012-04-08 09:21:38 -0700
Sun Ra / Piano Recital: Teatro La Fenice
Used drive : OPTIARC DVD RW AD-5680H (revision 3AHB)
Ripper mode : XLD Secure Ripper
Disable audio cache : OK for the drive with a cache less than 1375KiB
Make use of C2 pointers : NO
Read offset correction : 48
Max retry count : 100
Gap status : Analyzed, Appended (except HTOA)
TOC of the extracted CD
Track | Start | Length | Start sector | End sector
---------------------------------------------------------
1 | 00:00:00 | 04:57:36 | 0 | 22310
2 | 04:57:36 | 04:33:04 | 22311 | 42789
3 | 09:30:40 | 05:15:22 | 42790 | 66436
4 | 14:45:62 | 06:55:63 | 66437 | 97624
5 | 21:41:50 | 04:12:51 | 97625 | 116575
6 | 25:54:26 | 04:26:29 | 116576 | 136554
7 | 30:20:55 | 05:52:53 | 136555 | 163007
8 | 36:13:33 | 03:57:19 | 163008 | 180801
9 | 40:10:52 | 04:07:65 | 180802 | 199391
10 | 44:18:42 | 07:20:44 | 199392 | 232435
11 | 51:39:11 | 07:36:18 | 232436 | 266653
AccurateRip Summary
Disc not found in AccurateRip DB.
All Tracks
Album gain : 2.03 dB
Peak : 0.949921
Statistics
Read error : 0
Jitter error (maybe fixed) : 0
Retry sector count : 0
Damaged sector count : 0
Track 01
Filename : /Users/Shared/FLAC/Sun Ra - Piano Recitalпјљ Teatro La Fenice - (2005) [FLAC] 01 - Free Improvisation.flac
Pre-gap length : 00:02:00
Track gain : 4.33 dB
Peak : 0.739929
CRC32 hash (test run) : 49F2FF0A
CRC32 hash : 49F2FF0A
CRC32 hash (skip zero) : 5363D554
AccurateRip signature : 6579AFF1
->Track not present in AccurateRip database.
Statistics
Read error : 0
Jitter error (maybe fixed) : 0
Retry sector count : 0
Damaged sector count : 0
Track 02
Filename : /Users/Shared/FLAC/Sun Ra - Piano Recitalпјљ Teatro La Fenice - (2005) [FLAC] 02 - Blues.flac
Track gain : 4.80 dB
Peak : 0.661438
CRC32 hash (test run) : B2557E76
CRC32 hash : B2557E76
CRC32 hash (skip zero) : 19B09A04
AccurateRip signature : CEC87493
->Track not present in AccurateRip database.
Statistics
Read error : 0
Jitter error (maybe fixed) : 0
Retry sector count : 0
Damaged sector count : 0
Track 03
Filename : /Users/Shared/FLAC/Sun Ra - Piano Recitalпјљ Teatro La Fenice - (2005) [FLAC] 03 - Love In Outer Space.flac
Track gain : 5.47 dB
Peak : 0.727692
CRC32 hash (test run) : CBE5214B
CRC32 hash : CBE5214B
CRC32 hash (skip zero) : F87F3EDB
AccurateRip signature : 825367DD
->Track not present in AccurateRip database.
Statistics
Read error : 0
Jitter error (maybe fixed) : 0
Retry sector count : 0
Damaged sector count : 0
Track 04
Filename : /Users/Shared/FLAC/Sun Ra - Piano Recitalпјљ Teatro La Fenice - (2005) [FLAC] 04 - Outer Spaceways Inc..flac
Track gain : 3.73 dB
Peak : 0.691528
CRC32 hash (test run) : 4DEB963D
CRC32 hash : 4DEB963D
CRC32 hash (skip zero) : 541165EE
AccurateRip signature : A3666BA1
->Track not present in AccurateRip database.
Statistics
Read error : 0
Jitter error (maybe fixed) : 0
Retry sector count : 0
Damaged sector count : 0
Track 05
Filename : /Users/Shared/FLAC/Sun Ra - Piano Recitalпјљ Teatro La Fenice - (2005) [FLAC] 05 - Take The "A" Train.flac
Track gain : 5.45 dB
Peak : 0.443939
CRC32 hash (test run) : 4DBA64D6
CRC32 hash : 4DBA64D6
CRC32 hash (skip zero) : A64D316F
AccurateRip signature : 9821B981
->Track not present in AccurateRip database.
Statistics
Read error : 0
Jitter error (maybe fixed) : 0
Retry sector count : 0
Damaged sector count : 0
Track 06
Filename : /Users/Shared/FLAC/Sun Ra - Piano Recitalпјљ Teatro La Fenice - (2005) [FLAC] 06 - St. Louis Blues.flac
Track gain : 4.40 dB
Peak : 0.533691
CRC32 hash (test run) : 7E79B612
CRC32 hash : 7E79B612
CRC32 hash (skip zero) : F8B91F9F
AccurateRip signature : 73395F40
->Track not present in AccurateRip database.
Statistics
Read error : 0
Jitter error (maybe fixed) : 0
Retry sector count : 0
Damaged sector count : 0
Track 07
Filename : /Users/Shared/FLAC/Sun Ra - Piano Recitalпјљ Teatro La Fenice - (2005) [FLAC] 07 - Penthouse Serenade.flac
Track gain : 1.16 dB
Peak : 0.755920
CRC32 hash (test run) : 9BF01460
CRC32 hash : 9BF01460
CRC32 hash (skip zero) : 7735727B
AccurateRip signature : 3B30CA91
->Track not present in AccurateRip database.
Statistics
Read error : 0
Jitter error (maybe fixed) : 0
Retry sector count : 0
Damaged sector count : 0
Track 08
Filename : /Users/Shared/FLAC/Sun Ra - Piano Recitalпјљ Teatro La Fenice - (2005) [FLAC] 08 - Angel Race.flac
Track gain : 2.43 dB
Peak : 0.696899
CRC32 hash (test run) : 445411B7
CRC32 hash : 445411B7
CRC32 hash (skip zero) : B44CB534
AccurateRip signature : 7E57250C
->Track not present in AccurateRip database.
Statistics
Read error : 0
Jitter error (maybe fixed) : 0
Retry sector count : 0
Damaged sector count : 0
Track 09
Filename : /Users/Shared/FLAC/Sun Ra - Piano Recitalпјљ Teatro La Fenice - (2005) [FLAC] 09 - Free Improvisation.flac
Track gain : 0.82 dB
Peak : 0.748230
CRC32 hash (test run) : E2953BE3
CRC32 hash : E2953BE3
CRC32 hash (skip zero) : AB7DA25B
AccurateRip signature : BB6BFED2
->Track not present in AccurateRip database.
Statistics
Read error : 0
Jitter error (maybe fixed) : 0
Retry sector count : 0
Damaged sector count : 0
Track 10
Filename : /Users/Shared/FLAC/Sun Ra - Piano Recitalпјљ Teatro La Fenice - (2005) [FLAC] 10 - Honeysuckle Rose.flac
Track gain : 0.01 dB
Peak : 0.934143
CRC32 hash (test run) : D14A0293
CRC32 hash : D14A0293
CRC32 hash (skip zero) : 6449D35A
AccurateRip signature : 892650D9
->Track not present in AccurateRip database.
Statistics
Read error : 0
Jitter error (maybe fixed) : 0
Retry sector count : 0
Damaged sector count : 0
Track 11
Filename : /Users/Shared/FLAC/Sun Ra - Piano Recitalпјљ Teatro La Fenice - (2005) [FLAC] 11 - Friendly Galazy пјЏ Spontaneous Simplicity.flac
Track gain : 0.29 dB
Peak : 0.949921
CRC32 hash (test run) : EFE432AE
CRC32 hash : EFE432AE
CRC32 hash (skip zero) : 8B519877
AccurateRip signature : 1D8C63C8
->Track not present in AccurateRip database.
Statistics
Read error : 0
Jitter error (maybe fixed) : 0
Retry sector count : 0
Damaged sector count : 0
No errors occurred
End of status report
 
Лог проверки качества
TITLE "Piano Recital: Teatro La Fenice"
PERFORMER "Sun Ra"
REM GENRE "Jazz"
REM DATE "2005"
REM DISCNUMBER 1
REM TOTALDISCS 1
REM DISCID 8B0DE30B
REM REPLAYGAIN_ALBUM_GAIN 2.03 dB
REM REPLAYGAIN_ALBUM_PEAK 0.949921
FILE "01 - Free Improvisation.flac" WAVE
TRACK 01 AUDIO
TITLE "Free Improvisation"
SONGWRITER "Sun Ra"
REM REPLAYGAIN_TRACK_GAIN 4.33 dB
REM REPLAYGAIN_TRACK_PEAK 0.739929
INDEX 01 00:00:00
FILE "02 - Blues.flac" WAVE
TRACK 02 AUDIO
TITLE "Blues"
SONGWRITER "Sun Ra"
REM REPLAYGAIN_TRACK_GAIN 4.80 dB
REM REPLAYGAIN_TRACK_PEAK 0.661438
INDEX 01 00:00:00
FILE "03 - Love In Outer Space.flac" WAVE
TRACK 03 AUDIO
TITLE "Love In Outer Space"
SONGWRITER "Sun Ra"
REM REPLAYGAIN_TRACK_GAIN 5.47 dB
REM REPLAYGAIN_TRACK_PEAK 0.727692
INDEX 01 00:00:00
FILE "04 - Outer Spaceways Inc..flac" WAVE
TRACK 04 AUDIO
TITLE "Outer Spaceways Inc."
SONGWRITER "Sun Ra"
REM REPLAYGAIN_TRACK_GAIN 3.73 dB
REM REPLAYGAIN_TRACK_PEAK 0.691528
INDEX 01 00:00:00
FILE "05 - Take The_A_Train.flac" WAVE
TRACK 05 AUDIO
TITLE "Take The "A" Train"
SONGWRITER "Sun Ra"
REM REPLAYGAIN_TRACK_GAIN 5.45 dB
REM REPLAYGAIN_TRACK_PEAK 0.443939
INDEX 01 00:00:00
FILE "06 - St. Louis Blues.flac" WAVE
TRACK 06 AUDIO
TITLE "St. Louis Blues"
SONGWRITER "Sun Ra"
REM REPLAYGAIN_TRACK_GAIN 4.40 dB
REM REPLAYGAIN_TRACK_PEAK 0.533691
INDEX 01 00:00:00
FILE "07 - Penthouse Serenade.flac" WAVE
TRACK 07 AUDIO
TITLE "Penthouse Serenade"
SONGWRITER "Sun Ra"
REM REPLAYGAIN_TRACK_GAIN 1.16 dB
REM REPLAYGAIN_TRACK_PEAK 0.755920
INDEX 01 00:00:00
FILE "08 - Angel Race.flac" WAVE
TRACK 08 AUDIO
TITLE "Angel Race"
SONGWRITER "Sun Ra"
REM REPLAYGAIN_TRACK_GAIN 2.43 dB
REM REPLAYGAIN_TRACK_PEAK 0.696899
INDEX 01 00:00:00
FILE "09 - Free Improvisation.flac" WAVE
TRACK 09 AUDIO
TITLE "Free Improvisation"
SONGWRITER "Sun Ra"
REM REPLAYGAIN_TRACK_GAIN 0.82 dB
REM REPLAYGAIN_TRACK_PEAK 0.748230
INDEX 01 00:00:00
FILE "10 - Honeysuckle Rose.flac" WAVE
TRACK 10 AUDIO
TITLE "Honeysuckle Rose"
SONGWRITER "Sun Ra"
REM REPLAYGAIN_TRACK_GAIN 0.01 dB
REM REPLAYGAIN_TRACK_PEAK 0.934143
INDEX 01 00:00:00
FILE "11 - Friendly Galazy - Spontaneous Simplicity.flac" WAVE
TRACK 11 AUDIO
TITLE "Friendly Galazy / Spontaneous Simplicity"
SONGWRITER "Sun Ra"
REM REPLAYGAIN_TRACK_GAIN 0.29 dB
REM REPLAYGAIN_TRACK_PEAK 0.949921
INDEX 01 00:00:00
Доп. информация:
Recorded live at the Teatro La Fenice, Venezia, November 24, 1977.
Limited edition 1500 copies
 
Об альбоме (сборнике)
By KEN WAXMAN, Published: March 9, 2004
This is the hippest solo piano CD you're ever going to hear that features old time standards like "Take the A Train," "St Louis Blues" and "Honeysuckle Rose." That's because the artist involved isn't some wannabe young lion aiming for mainstream cred or a palsied trad jazz survivor nostalgically re-creating the sounds of his youth. Instead, the hoary jazz standards are slotted in among certified Saturnian melodies and improvisations by a figure who during his time on earth seemed to be part of all strands of improvised music: Le Sony'r Ra, known familiarly as Sun Ra (1914-1993).
Recorded live in Venice in 1977, these rare solo performances find Ra revisiting all facets of his career. With Ra there was never the divide between entertainment and art that marks the performances of younger, more self-conscious tone scientists, a term he preferred to musicians. Thus when he plays a simple blues he brings more dissonance to his left handed feints then you usually associate with the traditional sounds. When he performs his own "Angel Race," he begins by singing variations on the outer space theme.
As he continues playing, he works in some "I Got Rhythm" variations, showcases an allegro Afro-Cuban interlude and quotes passages from others of his compositions. In the same way "Love In Outer Space" is treated orchestrally and is lightly syncopated, with tinkling right hand tremolos meeting the theme advanced with his left hand. This is precisely the way pre-war stylists like Earl Hines treated piano showcases like his "Boogie Woogie on St. Louis Blues," which has its echoes in Ra's version of the piece, complete with strummed octaves and subterranean rumbles in left hand as the right picks out the sprightly melody. As a young pianist first in Birmingham, then Chicago, Ra (then Sonny Blount) must have heard and admired Hines' work.
It's known he was strongly influenced by Fletcher Henderson, who first employed him. His version of "Penthouse Serenade" here, which becomes a honky-tonk showcase with pumping piano chords and effervescent voicing, is probably similar to the sort of tunes he'd come up with for dance rehearsals, when he was working for Henderson in Chicago's Club DeLisa in the 1940s. In other spots, Ra uses pedal pressure to vibrate the 32 bass strings for extra oscillations and recasts a familiar pre-war melody with strong upbeats, chordal downbeats, flashing cascading chords and sharp key clips.
At one point he—in all seriousness—invites audience members to join him at a party in Jupiter sometime in the future. Reflecting the title without dispute, this CD is a valuable and rare piano recital. For Ra, myth-making and music-making were one and the same. Listen to this and learn to accept Ra on his own terms.
Visit Leo Records on the web.
Track Listing: Sun Ra- piano
Personnel: Free Improvisation/ Blues/ Love In Outer Space/ Outer Spaceways Inc./ Take the "A" Train/ St Louis Blues/ Penthouse Serenade/ Angel Race/ Free Improvisation/ Honeysuckle Rose/ Friendly Galaxy/Spontaneous Simplicity
Allmusic review by François Couture:
You read the title correctly, this is a rare solo piano concert by Sun Ra in front of an appreciative Venetian audience on November 24, 1977. Recorded by whom and for what purpose remains undisclosed. The sound quality is slightly disappointing. The piano is well captured and detailed, but tucked almost all the way into the left stereo channel and the master tape shows its age toward the end of the set. Sun Ra gives a spirited performance, full of invention. His highly personal renditions of standards like "Take the "A" Train" and "St. Louis Blues" provide highlights, but don't top his complete recomposition of Fats Waller's "Honeysuckle Rose." The way he stretches the melody and develops the bassline into a tune he could claim as his own is simply remarkable. The set also includes a couple of free improvisations and key Sun Ra compositions such as "Love in Outer Space," "Outer Spaceways Inc.," "Friendly Galaxy," and "Angel Race," on which he is faintly heard singing the chorus. Moody and talkative in his playing, Sun Ra gives a generous performance, the kind you expect from him. Without the Arkestra to urge him forward in his space travels, he takes more time to reminisce and converse. Fans will find this Piano Recital to provide a lovely moment despite its slightly under-par sound quality.
Village Voice review by John F. Szwed:
In this rare solo piano concert, Ra ambles from the cocktail lounge to outer space. And vice versa. The introduction to "Penthouse Serenade" outdoes Cecil Taylor for sheer bombastic pianistics, then drifts into a gentle Monkish stride. Sun Ra isn't actually named in John Berendt's The City of Falling Angels as a suspect in the arson that burned down the opera house, but this CD is Exhibit A. Simply outrageous.
 
Состав
Sun Ra - piano
Any questions -> support@pro-jazz.com. По всем вопросам пишите -> support@pro-jazz.com
00:01
227
Нет комментариев. Ваш будет первым!