Вы используете незарегистрированную версию компонента "Вкладки"!

Поиск

(Free Jazz) Sun Ra - Live At Slug's Saloon (6xCD Boxed Set) - 2008, FLAC (tracks+.cue), lossless

(Free Jazz) Sun Ra - Live At Slug's Saloon (6xCD Boxed Set) - 2008, FLAC (tracks+.cue), lossless
Треклист:
Sun RaLive At Slug's Saloon
Жанр: Free Jazz
Страна-производитель диска: US
Год издания: 2008
Издатель (лейбл): Transparency
Номер по каталогу: 0313
Аудиокодек: FLAC (*.flac)
Тип рипа: tracks+.cue
Битрейт аудио: lossless
Источник (релизер): what.cd (pjc)
Наличие сканов в содержимом раздачи: нет
Продолжительность: cd1 72:49; cd2 56:54; cd3 49:53; cd4 71:08; cd5 69:03; cd6 44:28;
Треклист:
June 7, 1972
1-1 Untitled
Soloist [Cello] – Alzo Wright
Soloist [Oboe] – Marshall Allen
1-2 Discipline #?
1-3 Instrumental Theme
1-4 They'll Come Back
1-5 Scene N Take N
1-6 Calling Planet Earth
1-7 Untitled
Soloist [Trumpet] – Akh Tal Ebah
1-8 Theme Of The Stargazers
1-9 Discipline 11 / Discipline #?
2-1 Unidentified
Soloist [Alto Saxophone] – Marshall Allen
2-2 Enlightenment
Written-By – Hobart Dotson
2-3 Love In Outer Space
2-4 Discipline #?
2-5 The Shadow World
2-6 Discipline #?
2-7 Unidentified
3-1 Angels And Demons At Play / Watusi
3-2 Unidentified
Soloist [Keyboards] – Sun Ra
3-3 Theme Of The Stargazers
3-4 Space Is The Place
August 19, 1972
4-1 Percussion Episode
4-2 Strange Worlds / At First There Was Nothing
4-3 Discipline / Discipline #?
4-4 Untitled
Soloist [Keyboards] – Sun Ra
4-5 Calling Planet Earth
4-6 Angels And Demons At Play / Watusi
4-7 Outer Space (Is A Pleasant Place)
4-8 Discipline #27
4-9 I'll Wait For You
4-10 Untitled
5-1 Discipline 27-III
5-2 Theme Of The Stargazers
5-3 Space Is The Place
5-4 Untitled
Soloist [Ensemble Freakout] – Sun Ra Arkestra, The
Soloist [Keyboards] – Sun Ra
5-5 Enlightenment
Written-By – Hobart Dotson
5-6 Love In Outer Space
5-7 Discipline 33
5-8 Untitled
Soloist [Keyboards] – Sun Ra
6-1 Stardust From Tomorrow
6-2 The Shadow World
6-3 Why Go To The Moon?
 
Лог создания рипа
 
cd1
Exact Audio Copy V0.99 prebeta 5 from 4. May 2009
EAC extraction logfile from 9. January 2011, 13:54
Sun Ra / Live At Slug's Saloon
Used drive : HL-DT-STDVDRAM GSA-4167B Adapter: 0 ID: 0
Read mode : Secure
Utilize accurate stream : Yes
Defeat audio cache : Yes
Make use of C2 pointers : No
Read offset correction : 667
Overread into Lead-In and Lead-Out : No
Fill up missing offset samples with silence : Yes
Delete leading and trailing silent blocks : No
Null samples used in CRC calculations : Yes
Used interface : Installed external ASPI interface
Gap handling : Appended to previous track
Used output format : User Defined Encoder
Selected bitrate : 768 kBit/s
Quality : High
Add ID3 tag : No
Command line compressor : C:\Program Files\Exact Audio Copy\FLAC\FLAC.EXE
Additional command line options : -V -8 -T "artist=%a" -T "title=%t" -T "album=%g" -T "date=%y" -T "tracknumber=%n" -T "genre=%m" %s
TOC of the extracted CD
Track | Start | Length | Start sector | End sector
---------------------------------------------------------
1 | 0:00.00 | 23:45.44 | 0 | 106918
2 | 23:45.44 | 5:01.13 | 106919 | 129506
3 | 28:46.57 | 14:18.10 | 129507 | 193866
4 | 43:04.67 | 7:51.14 | 193867 | 229205
5 | 50:56.06 | 5:06.13 | 229206 | 252168
6 | 56:02.19 | 3:19.00 | 252169 | 267093
7 | 59:21.19 | 2:35.46 | 267094 | 278764
8 | 61:56.65 | 2:35.22 | 278765 | 290411
9 | 64:32.12 | 8:16.60 | 290412 | 327671
Track 1
Filename Q:\Rips\Sun Ra - Live At Slug's Saloon\D1\01 - Sun Ra - Untitled (Cello, Oboe, Long Percussion Section).wav
Pre-gap length 0:00:02.00
Peak level 97.0 %
Track quality 100.0 %
Test CRC 849ACC5C
Copy CRC 849ACC5C
Track not present in AccurateRip database
Copy OK
Track 2
Filename Q:\Rips\Sun Ra - Live At Slug's Saloon\D1\02 - Sun Ra - Discipline # .wav
Peak level 87.8 %
Track quality 99.9 %
Test CRC 15CBA607
Copy CRC 15CBA607
Track not present in AccurateRip database
Copy OK
Track 3
Filename Q:\Rips\Sun Ra - Live At Slug's Saloon\D1\03 - Sun Ra - Instrumental Theme (Mid-Tempo Theme, Plus 7,4 Vamp Section).wav
Peak level 99.9 %
Track quality 100.0 %
Test CRC FCD1C1B5
Copy CRC FCD1C1B5
Track not present in AccurateRip database
Copy OK
Track 4
Filename Q:\Rips\Sun Ra - Live At Slug's Saloon\D1\04 - Sun Ra - They'll Come Back.wav
Peak level 78.8 %
Track quality 99.9 %
Test CRC BDE568B7
Copy CRC BDE568B7
Track not present in AccurateRip database
Copy OK
Track 5
Filename Q:\Rips\Sun Ra - Live At Slug's Saloon\D1\05 - Sun Ra - Scene N Take N.wav
Peak level 76.6 %
Track quality 99.9 %
Test CRC 68577168
Copy CRC 68577168
Track not present in AccurateRip database
Copy OK
Track 6
Filename Q:\Rips\Sun Ra - Live At Slug's Saloon\D1\06 - Sun Ra - Calling Planet Earth.wav
Peak level 89.0 %
Track quality 100.0 %
Test CRC DDD5F0B4
Copy CRC DDD5F0B4
Track not present in AccurateRip database
Copy OK
Track 7
Filename Q:\Rips\Sun Ra - Live At Slug's Saloon\D1\07 - Sun Ra - Untitled (Trumpet Solo).wav
Peak level 83.1 %
Track quality 100.0 %
Test CRC FF61AE6E
Copy CRC FF61AE6E
Track not present in AccurateRip database
Copy OK
Track 8
Filename Q:\Rips\Sun Ra - Live At Slug's Saloon\D1\08 - Sun Ra - Theme Of The Stargazers.wav
Peak level 72.6 %
Track quality 100.0 %
Test CRC 4B87BA6D
Copy CRC 4B87BA6D
Track not present in AccurateRip database
Copy OK
Track 9
Filename Q:\Rips\Sun Ra - Live At Slug's Saloon\D1\09 - Sun Ra - Discipline 11 - Discipline # .wav
Peak level 96.2 %
Track quality 99.9 %
Test CRC 65A42DDB
Copy CRC 65A42DDB
Track not present in AccurateRip database
Copy OK
None of the tracks are present in the AccurateRip database
No errors occurred
End of status report
 
cd2
Exact Audio Copy V0.99 prebeta 5 from 4. May 2009
EAC extraction logfile from 9. January 2011, 14:15
Sun Ra / Live At Slug's Saloon
Used drive : HL-DT-STDVDRAM GSA-4167B Adapter: 0 ID: 0
Read mode : Secure
Utilize accurate stream : Yes
Defeat audio cache : Yes
Make use of C2 pointers : No
Read offset correction : 667
Overread into Lead-In and Lead-Out : No
Fill up missing offset samples with silence : Yes
Delete leading and trailing silent blocks : No
Null samples used in CRC calculations : Yes
Used interface : Installed external ASPI interface
Gap handling : Appended to previous track
Used output format : User Defined Encoder
Selected bitrate : 768 kBit/s
Quality : High
Add ID3 tag : No
Command line compressor : C:\Program Files\Exact Audio Copy\FLAC\FLAC.EXE
Additional command line options : -V -8 -T "artist=%a" -T "title=%t" -T "album=%g" -T "date=%y" -T "tracknumber=%n" -T "genre=%m" %s
TOC of the extracted CD
Track | Start | Length | Start sector | End sector
---------------------------------------------------------
1 | 0:00.00 | 8:20.06 | 0 | 37505
2 | 8:20.06 | 2:25.52 | 37506 | 48432
3 | 10:45.58 | 8:01.46 | 48433 | 84553
4 | 18:47.29 | 20:31.30 | 84554 | 176908
5 | 39:18.59 | 17:35.22 | 176909 | 256055
Track 1
Filename Q:\Rips\Sun Ra - Live At Slug's Saloon\D2\01 - Sun Ra - Unidentified (Alto Solo, Riff Theme, Ensembles And Solos).wav
Pre-gap length 0:00:02.00
Peak level 82.5 %
Track quality 99.9 %
Test CRC D80BB54F
Copy CRC D80BB54F
Track not present in AccurateRip database
Copy OK
Track 2
Filename Q:\Rips\Sun Ra - Live At Slug's Saloon\D2\02 - Sun Ra - Enlightenment.wav
Peak level 79.3 %
Track quality 100.0 %
Test CRC 5502AF98
Copy CRC 5502AF98
Track not present in AccurateRip database
Copy OK
Track 3
Filename Q:\Rips\Sun Ra - Live At Slug's Saloon\D2\03 - Sun Ra - Love In Outer Space.wav
Peak level 89.1 %
Track quality 100.0 %
Test CRC 3532F075
Copy CRC 3532F075
Track not present in AccurateRip database
Copy OK
Track 4
Filename Q:\Rips\Sun Ra - Live At Slug's Saloon\D2\04 - Sun Ra - Discipline # - The Shadow World - Discipline # (Organ Prelude, Theme, Alto, Applause).wav
Peak level 99.9 %
Track quality 100.0 %
Test CRC 58B5658C
Copy CRC 58B5658C
Track not present in AccurateRip database
Copy OK
Track 5
Filename Q:\Rips\Sun Ra - Live At Slug's Saloon\D2\05 - Sun Ra - Unidentified (Organ Chords, Percussion Solos, Different Theme).wav
Peak level 83.8 %
Track quality 99.9 %
Test CRC 2E17DA4D
Copy CRC 2E17DA4D
Track not present in AccurateRip database
Copy OK
None of the tracks are present in the AccurateRip database
No errors occurred
End of status report
 
cd3
Exact Audio Copy V0.99 prebeta 5 from 4. May 2009
EAC extraction logfile from 9. January 2011, 14:37
Sun Ra / Live At Slug's Saloon
Used drive : HL-DT-STDVDRAM GSA-4167B Adapter: 0 ID: 0
Read mode : Secure
Utilize accurate stream : Yes
Defeat audio cache : Yes
Make use of C2 pointers : No
Read offset correction : 667
Overread into Lead-In and Lead-Out : No
Fill up missing offset samples with silence : Yes
Delete leading and trailing silent blocks : No
Null samples used in CRC calculations : Yes
Used interface : Installed external ASPI interface
Gap handling : Appended to previous track
Used output format : User Defined Encoder
Selected bitrate : 768 kBit/s
Quality : High
Add ID3 tag : No
Command line compressor : C:\Program Files\Exact Audio Copy\FLAC\FLAC.EXE
Additional command line options : -V -8 -T "artist=%a" -T "title=%t" -T "album=%g" -T "date=%y" -T "tracknumber=%n" -T "genre=%m" %s
TOC of the extracted CD
Track | Start | Length | Start sector | End sector
---------------------------------------------------------
1 | 0:00.00 | 36:52.30 | 0 | 165929
2 | 36:52.30 | 3:45.71 | 165930 | 182875
3 | 40:38.26 | 0:45.29 | 182876 | 186279
4 | 41:23.55 | 8:29.04 | 186280 | 224458
Track 1
Filename Q:\Rips\Sun Ra - Live At Slug's Saloon\D3\01 - Sun Ra - Angels And Demons At Play - Watusi.wav
Pre-gap length 0:00:02.00
Peak level 100.0 %
Track quality 100.0 %
Test CRC 5686451B
Copy CRC 5686451B
Track not present in AccurateRip database
Copy OK
Track 2
Filename Q:\Rips\Sun Ra - Live At Slug's Saloon\D3\02 - Sun Ra - Unidentified (Ra Solo).wav
Peak level 60.2 %
Track quality 100.0 %
Test CRC 7AE7733B
Copy CRC 7AE7733B
Track not present in AccurateRip database
Copy OK
Track 3
Filename Q:\Rips\Sun Ra - Live At Slug's Saloon\D3\03 - Sun Ra - Theme Of The Stargazers.wav
Peak level 74.6 %
Track quality 100.0 %
Test CRC 11132CEE
Copy CRC 11132CEE
Track not present in AccurateRip database
Copy OK
Track 4
Filename Q:\Rips\Sun Ra - Live At Slug's Saloon\D3\04 - Sun Ra - Space Is The Place.wav
Peak level 72.6 %
Track quality 100.0 %
Test CRC 982E7253
Copy CRC 982E7253
Track not present in AccurateRip database
Copy OK
None of the tracks are present in the AccurateRip database
No errors occurred
End of status report
 
cd4
Exact Audio Copy V0.99 prebeta 5 from 4. May 2009
EAC extraction logfile from 9. January 2011, 15:02
Sun Ra / Live At Slug's Saloon
Used drive : HL-DT-STDVDRAM GSA-4167B Adapter: 0 ID: 0
Read mode : Secure
Utilize accurate stream : Yes
Defeat audio cache : Yes
Make use of C2 pointers : No
Read offset correction : 667
Overread into Lead-In and Lead-Out : No
Fill up missing offset samples with silence : Yes
Delete leading and trailing silent blocks : No
Null samples used in CRC calculations : Yes
Used interface : Installed external ASPI interface
Gap handling : Appended to previous track
Used output format : User Defined Encoder
Selected bitrate : 768 kBit/s
Quality : High
Add ID3 tag : No
Command line compressor : C:\Program Files\Exact Audio Copy\FLAC\FLAC.EXE
Additional command line options : -V -8 -T "artist=%a" -T "title=%t" -T "album=%g" -T "date=%y" -T "tracknumber=%n" -T "genre=%m" %s
TOC of the extracted CD
Track | Start | Length | Start sector | End sector
---------------------------------------------------------
1 | 0:00.00 | 4:17.10 | 0 | 19284
2 | 4:17.10 | 15:00.10 | 19285 | 86794
3 | 19:17.20 | 5:18.71 | 86795 | 110715
4 | 24:36.16 | 1:49.66 | 110716 | 118956
5 | 26:26.07 | 1:30.16 | 118957 | 125722
6 | 27:56.23 | 18:34.36 | 125723 | 209308
7 | 46:30.59 | 4:48.46 | 209309 | 230954
8 | 51:19.30 | 8:00.56 | 230955 | 267010
9 | 59:20.11 | 2:37.45 | 267011 | 278830
10 | 61:57.56 | 9:10.15 | 278831 | 320095
Track 1
Filename Q:\Rips\Sun Ra - Live At Slug's Saloon\D4\01 - Sun Ra - Percussion Episode.wav
Pre-gap length 0:00:02.00
Peak level 97.3 %
Track quality 100.0 %
Test CRC 7E370047
Copy CRC 7E370047
Track not present in AccurateRip database
Copy OK
Track 2
Filename Q:\Rips\Sun Ra - Live At Slug's Saloon\D4\02 - Sun Ra - Strange Worlds - At First There Was Nothing.wav
Peak level 89.7 %
Track quality 100.0 %
Test CRC 123E96B6
Copy CRC 123E96B6
Track not present in AccurateRip database
Copy OK
Track 3
Filename Q:\Rips\Sun Ra - Live At Slug's Saloon\D4\03 - Sun Ra - Discipline - Discipline # .wav
Peak level 83.1 %
Track quality 100.0 %
Test CRC 4A6A4178
Copy CRC 4A6A4178
Track not present in AccurateRip database
Copy OK
Track 4
Filename Q:\Rips\Sun Ra - Live At Slug's Saloon\D4\04 - Sun Ra - Untitled Ra Solo.wav
Pre-gap length 0:00:01.17
Peak level 55.3 %
Track quality 100.0 %
Test CRC 4D811D7F
Copy CRC 4D811D7F
Track not present in AccurateRip database
Copy OK
Track 5
Filename Q:\Rips\Sun Ra - Live At Slug's Saloon\D4\05 - Sun Ra - Calling Planet Earth.wav
Peak level 70.1 %
Track quality 100.0 %
Test CRC 7ADA7995
Copy CRC 7ADA7995
Track not present in AccurateRip database
Copy OK
Track 6
Filename Q:\Rips\Sun Ra - Live At Slug's Saloon\D4\06 - Sun Ra - Angels And Demons At Play - Watusi.wav
Pre-gap length 0:00:01.08
Peak level 99.9 %
Track quality 100.0 %
Test CRC 8D8D700F
Copy CRC 8D8D700F
Track not present in AccurateRip database
Copy OK
Track 7
Filename Q:\Rips\Sun Ra - Live At Slug's Saloon\D4\07 - Sun Ra - Outer Space (Is A Pleasant Place).wav
Pre-gap length 0:00:01.03
Peak level 89.4 %
Track quality 100.0 %
Test CRC F3D00512
Copy CRC F3D00512
Track not present in AccurateRip database
Copy OK
Track 8
Filename Q:\Rips\Sun Ra - Live At Slug's Saloon\D4\08 - Sun Ra - Discipline #27.wav
Peak level 94.7 %
Track quality 100.0 %
Test CRC 789908F7
Copy CRC 789908F7
Track not present in AccurateRip database
Copy OK
Track 9
Filename Q:\Rips\Sun Ra - Live At Slug's Saloon\D4\09 - Sun Ra - I'll Wait For You.wav
Peak level 95.2 %
Track quality 100.0 %
Test CRC 9A343953
Copy CRC 9A343953
Track not present in AccurateRip database
Copy OK
Track 10
Filename Q:\Rips\Sun Ra - Live At Slug's Saloon\D4\10 - Sun Ra - Untitled 9 - 10.wav
Peak level 100.0 %
Track quality 100.0 %
Test CRC 7D13E29B
Copy CRC 7D13E29B
Track not present in AccurateRip database
Copy OK
None of the tracks are present in the AccurateRip database
No errors occurred
End of status report
 
cd5
Exact Audio Copy V0.99 prebeta 5 from 4. May 2009
EAC extraction logfile from 9. January 2011, 15:31
Sun Ra / Live At Slug's Saloon
Used drive : HL-DT-STDVDRAM GSA-4167B Adapter: 0 ID: 0
Read mode : Secure
Utilize accurate stream : Yes
Defeat audio cache : Yes
Make use of C2 pointers : No
Read offset correction : 667
Overread into Lead-In and Lead-Out : No
Fill up missing offset samples with silence : Yes
Delete leading and trailing silent blocks : No
Null samples used in CRC calculations : Yes
Used interface : Installed external ASPI interface
Gap handling : Appended to previous track
Used output format : User Defined Encoder
Selected bitrate : 768 kBit/s
Quality : High
Add ID3 tag : No
Command line compressor : C:\Program Files\Exact Audio Copy\FLAC\FLAC.EXE
Additional command line options : -V -8 -T "artist=%a" -T "title=%t" -T "album=%g" -T "date=%y" -T "tracknumber=%n" -T "genre=%m" %s
TOC of the extracted CD
Track | Start | Length | Start sector | End sector
---------------------------------------------------------
1 | 0:00.00 | 23:19.74 | 0 | 104998
2 | 23:19.74 | 0:35.47 | 104999 | 107670
3 | 23:55.46 | 14:43.18 | 107671 | 173913
4 | 38:38.64 | 7:59.41 | 173914 | 209879
5 | 46:38.30 | 2:17.68 | 209880 | 220222
6 | 48:56.23 | 11:25.24 | 220223 | 271621
7 | 60:21.47 | 6:30.22 | 271622 | 300893
8 | 66:51.69 | 2:10.46 | 300894 | 310689
Track 1
Filename Q:\Rips\Sun Ra - Live At Slug's Saloon\D5\01 - Sun Ra - Ddiscipline 27-II.wav
Pre-gap length 0:00:02.00
Peak level 99.9 %
Track quality 99.9 %
Test CRC 80BD1E59
Copy CRC 80BD1E59
Track not present in AccurateRip database
Copy OK
Track 2
Filename Q:\Rips\Sun Ra - Live At Slug's Saloon\D5\02 - Sun Ra - Theme Of The Stargazers.wav
Peak level 88.9 %
Track quality 100.0 %
Test CRC C83D2DC0
Copy CRC C83D2DC0
Track not present in AccurateRip database
Copy OK
Track 3
Filename Q:\Rips\Sun Ra - Live At Slug's Saloon\D5\03 - Sun Ra - Space Is The Place.wav
Peak level 94.1 %
Track quality 100.0 %
Test CRC 7E18D051
Copy CRC 7E18D051
Track not present in AccurateRip database
Copy OK
Track 4
Filename Q:\Rips\Sun Ra - Live At Slug's Saloon\D5\04 - Sun Ra - Untitled (Ra Solos And Ensemble Freakout).wav
Peak level 94.5 %
Track quality 100.0 %
Test CRC E435E79E
Copy CRC E435E79E
Track not present in AccurateRip database
Copy OK
Track 5
Filename Q:\Rips\Sun Ra - Live At Slug's Saloon\D5\05 - Sun Ra - Enlightenment.wav
Peak level 84.4 %
Track quality 100.0 %
Test CRC 84400164
Copy CRC 84400164
Track not present in AccurateRip database
Copy OK
Track 6
Filename Q:\Rips\Sun Ra - Live At Slug's Saloon\D5\06 - Sun Ra - Love In Outer Space.wav
Peak level 99.9 %
Track quality 100.0 %
Test CRC 6EDB95A9
Copy CRC 6EDB95A9
Track not present in AccurateRip database
Copy OK
Track 7
Filename Q:\Rips\Sun Ra - Live At Slug's Saloon\D5\07 - Sun Ra - Discipline 33.wav
Peak level 89.3 %
Track quality 100.0 %
Test CRC 0007EA21
Copy CRC 0007EA21
Track not present in AccurateRip database
Copy OK
Track 8
Filename Q:\Rips\Sun Ra - Live At Slug's Saloon\D5\08 - Sun Ra - Untitled (Ra Solo).wav
Peak level 87.1 %
Track quality 100.0 %
Test CRC FEC30E50
Copy CRC FEC30E50
Track not present in AccurateRip database
Copy OK
None of the tracks are present in the AccurateRip database
No errors occurred
End of status report
 
cd6
Exact Audio Copy V0.99 prebeta 5 from 4. May 2009
EAC extraction logfile from 9. January 2011, 15:50
Sun Ra / Live At Slug's Saloon
Used drive : HL-DT-STDVDRAM GSA-4167B Adapter: 0 ID: 0
Read mode : Secure
Utilize accurate stream : Yes
Defeat audio cache : Yes
Make use of C2 pointers : No
Read offset correction : 667
Overread into Lead-In and Lead-Out : No
Fill up missing offset samples with silence : Yes
Delete leading and trailing silent blocks : No
Null samples used in CRC calculations : Yes
Used interface : Installed external ASPI interface
Gap handling : Appended to previous track
Used output format : User Defined Encoder
Selected bitrate : 768 kBit/s
Quality : High
Add ID3 tag : No
Command line compressor : C:\Program Files\Exact Audio Copy\FLAC\FLAC.EXE
Additional command line options : -V -8 -T "artist=%a" -T "title=%t" -T "album=%g" -T "date=%y" -T "tracknumber=%n" -T "genre=%m" %s
TOC of the extracted CD
Track | Start | Length | Start sector | End sector
---------------------------------------------------------
1 | 0:00.00 | 2:50.40 | 0 | 12789
2 | 2:50.40 | 2:46.39 | 12790 | 25278
3 | 5:37.04 | 38:50.51 | 25279 | 200079
Track 1
Filename Q:\Rips\Sun Ra - Live At Slug's Saloon\D6\01 - Sun Ra - Stardust From Tomorrow.wav
Pre-gap length 0:00:02.00
Peak level 92.9 %
Track quality 100.0 %
Test CRC 6EE3B368
Copy CRC 6EE3B368
Track not present in AccurateRip database
Copy OK
Track 2
Filename Q:\Rips\Sun Ra - Live At Slug's Saloon\D6\02 - Sun Ra - The Shadow World.wav
Peak level 93.8 %
Track quality 100.0 %
Test CRC 91FC6552
Copy CRC 91FC6552
Track not present in AccurateRip database
Copy OK
Track 3
Filename Q:\Rips\Sun Ra - Live At Slug's Saloon\D6\03 - Sun Ra - Why Go To The Moon .wav
Pre-gap length 0:00:01.65
Peak level 99.9 %
Track quality 100.0 %
Test CRC 9F450927
Copy CRC 9F450927
Track not present in AccurateRip database
Copy OK
None of the tracks are present in the AccurateRip database
No errors occurred
End of status report
 
Содержание индексной карты (.CUE)
 
cd1
REM GENRE Jazz
REM DATE 2009
REM DISCID 91111009
REM COMMENT "ExactAudioCopy v0.99pb5"
PERFORMER "Sun Ra"
TITLE "Live At Slug's Saloon"
FILE "01 - Sun Ra - Untitled (Cello, Oboe, Long Percussion Section).wav" WAVE
TRACK 01 AUDIO
TITLE "Untitled (Cello, Oboe, Long Percussion Section)"
PERFORMER "Sun Ra"
INDEX 01 00:00:00
FILE "02 - Sun Ra - Discipline # .wav" WAVE
TRACK 02 AUDIO
TITLE "Discipline #?"
PERFORMER "Sun Ra"
INDEX 01 00:00:00
FILE "03 - Sun Ra - Instrumental Theme (Mid-Tempo Theme, Plus 7,4 Vamp Section).wav" WAVE
TRACK 03 AUDIO
TITLE "Instrumental Theme (Mid-Tempo Theme, Plus 7/4 Vamp Section)"
PERFORMER "Sun Ra"
INDEX 01 00:00:00
FILE "04 - Sun Ra - They'll Come Back.wav" WAVE
TRACK 04 AUDIO
TITLE "They'll Come Back"
PERFORMER "Sun Ra"
INDEX 01 00:00:00
FILE "05 - Sun Ra - Scene N Take N.wav" WAVE
TRACK 05 AUDIO
TITLE "Scene N Take N"
PERFORMER "Sun Ra"
INDEX 01 00:00:00
FILE "06 - Sun Ra - Calling Planet Earth.wav" WAVE
TRACK 06 AUDIO
TITLE "Calling Planet Earth"
PERFORMER "Sun Ra"
INDEX 01 00:00:00
FILE "07 - Sun Ra - Untitled (Trumpet Solo).wav" WAVE
TRACK 07 AUDIO
TITLE "Untitled (Trumpet Solo)"
PERFORMER "Sun Ra"
INDEX 01 00:00:00
FILE "08 - Sun Ra - Theme Of The Stargazers.wav" WAVE
TRACK 08 AUDIO
TITLE "Theme Of The Stargazers"
PERFORMER "Sun Ra"
INDEX 01 00:00:00
FILE "09 - Sun Ra - Discipline 11 - Discipline # .wav" WAVE
TRACK 09 AUDIO
TITLE "Discipline 11 - Discipline #?"
PERFORMER "Sun Ra"
INDEX 01 00:00:00
 
cd2
REM GENRE Jazz
REM DATE 2009
REM DISCID 320D5605
REM COMMENT "ExactAudioCopy v0.99pb5"
PERFORMER "Sun Ra"
TITLE "Live At Slug's Saloon"
FILE "01 - Sun Ra - Unidentified (Alto Solo, Riff Theme, Ensembles And Solos).wav" WAVE
TRACK 01 AUDIO
TITLE "Unidentified (Alto Solo, Riff Theme, Ensembles And Solos)"
PERFORMER "Sun Ra"
INDEX 01 00:00:00
FILE "02 - Sun Ra - Enlightenment.wav" WAVE
TRACK 02 AUDIO
TITLE "Enlightenment"
PERFORMER "Sun Ra"
INDEX 01 00:00:00
FILE "03 - Sun Ra - Love In Outer Space.wav" WAVE
TRACK 03 AUDIO
TITLE "Love In Outer Space"
PERFORMER "Sun Ra"
INDEX 01 00:00:00
FILE "04 - Sun Ra - Discipline # - The Shadow World - Discipline # (Organ Prelude, Theme, Alto, Applause).wav" WAVE
TRACK 04 AUDIO
TITLE "Discipline #? - The Shadow World - Discipline #? (Organ Prelude, Theme, Alto,..."
PERFORMER "Sun Ra"
INDEX 01 00:00:00
FILE "05 - Sun Ra - Unidentified (Organ Chords, Percussion Solos, Different Theme).wav" WAVE
TRACK 05 AUDIO
TITLE "Unidentified (Organ Chords, Percussion Solos, Different Theme)"
PERFORMER "Sun Ra"
INDEX 01 00:00:00
 
cd3
REM GENRE Jazz
REM DATE 2009
REM DISCID 280BB004
REM COMMENT "ExactAudioCopy v0.99pb5"
PERFORMER "Sun Ra"
TITLE "Live At Slug's Saloon"
FILE "01 - Sun Ra - Angels And Demons At Play - Watusi.wav" WAVE
TRACK 01 AUDIO
TITLE "Angels And Demons At Play - Watusi"
PERFORMER "Sun Ra"
INDEX 01 00:00:00
FILE "02 - Sun Ra - Unidentified (Ra Solo).wav" WAVE
TRACK 02 AUDIO
TITLE "Unidentified (Ra Solo)"
PERFORMER "Sun Ra"
INDEX 01 00:00:00
FILE "03 - Sun Ra - Theme Of The Stargazers.wav" WAVE
TRACK 03 AUDIO
TITLE "Theme Of The Stargazers"
PERFORMER "Sun Ra"
INDEX 01 00:00:00
FILE "04 - Sun Ra - Space Is The Place.wav" WAVE
TRACK 04 AUDIO
TITLE "Space Is The Place"
PERFORMER "Sun Ra"
INDEX 01 00:00:00
 
cd4
REM GENRE Jazz
REM DATE 2009
REM DISCID A610AB0A
REM COMMENT "ExactAudioCopy v0.99pb5"
PERFORMER "Sun Ra"
TITLE "Live At Slug's Saloon"
FILE "01 - Sun Ra - Percussion Episode.wav" WAVE
TRACK 01 AUDIO
TITLE "Percussion Episode"
PERFORMER "Sun Ra"
INDEX 01 00:00:00
FILE "02 - Sun Ra - Strange Worlds - At First There Was Nothing.wav" WAVE
TRACK 02 AUDIO
TITLE "Strange Worlds - At First There Was Nothing"
PERFORMER "Sun Ra"
INDEX 01 00:00:00
FILE "03 - Sun Ra - Discipline - Discipline # .wav" WAVE
TRACK 03 AUDIO
TITLE "Discipline - Discipline #?"
PERFORMER "Sun Ra"
INDEX 01 00:00:00
TRACK 04 AUDIO
TITLE "Untitled Ra Solo"
PERFORMER "Sun Ra"
INDEX 00 05:17:54
FILE "04 - Sun Ra - Untitled Ra Solo.wav" WAVE
INDEX 01 00:00:00
FILE "05 - Sun Ra - Calling Planet Earth.wav" WAVE
TRACK 05 AUDIO
TITLE "Calling Planet Earth"
PERFORMER "Sun Ra"
INDEX 01 00:00:00
TRACK 06 AUDIO
TITLE "Angels And Demons At Play - Watusi"
PERFORMER "Sun Ra"
INDEX 00 01:29:08
FILE "06 - Sun Ra - Angels And Demons At Play - Watusi.wav" WAVE
INDEX 01 00:00:00
TRACK 07 AUDIO
TITLE "Outer Space (Is A Pleasant Place)"
PERFORMER "Sun Ra"
INDEX 00 18:33:33
FILE "07 - Sun Ra - Outer Space (Is A Pleasant Place).wav" WAVE
INDEX 01 00:00:00
FILE "08 - Sun Ra - Discipline #27.wav" WAVE
TRACK 08 AUDIO
TITLE "Discipline #27"
PERFORMER "Sun Ra"
INDEX 01 00:00:00
FILE "09 - Sun Ra - I'll Wait For You.wav" WAVE
TRACK 09 AUDIO
TITLE "I'll Wait For You"
PERFORMER "Sun Ra"
INDEX 01 00:00:00
FILE "10 - Sun Ra - Untitled 9 - 10.wav" WAVE
TRACK 10 AUDIO
TITLE "Untitled 9 - 10"
PERFORMER "Sun Ra"
INDEX 01 00:00:00
 
cd5
REM GENRE Jazz
REM DATE 2009
REM DISCID 54102E08
REM COMMENT "ExactAudioCopy v0.99pb5"
PERFORMER "Sun Ra"
TITLE "Live At Slug's Saloon"
FILE "01 - Sun Ra - Discipline 27-II.wav" WAVE
TRACK 01 AUDIO
TITLE "Discipline 27-II"
PERFORMER "Sun Ra"
INDEX 01 00:00:00
FILE "02 - Sun Ra - Theme Of The Stargazers.wav" WAVE
TRACK 02 AUDIO
TITLE "Theme Of The Stargazers"
PERFORMER "Sun Ra"
INDEX 01 00:00:00
FILE "03 - Sun Ra - Space Is The Place.wav" WAVE
TRACK 03 AUDIO
TITLE "Space Is The Place"
PERFORMER "Sun Ra"
INDEX 01 00:00:00
FILE "04 - Sun Ra - Untitled (Ra Solos And Ensemble Freakout).wav" WAVE
TRACK 04 AUDIO
TITLE "Untitled (Ra Solos And Ensemble Freakout)"
PERFORMER "Sun Ra"
INDEX 01 00:00:00
FILE "05 - Sun Ra - Enlightenment.wav" WAVE
TRACK 05 AUDIO
TITLE "Enlightenment"
PERFORMER "Sun Ra"
INDEX 01 00:00:00
FILE "06 - Sun Ra - Love In Outer Space.wav" WAVE
TRACK 06 AUDIO
TITLE "Love In Outer Space"
PERFORMER "Sun Ra"
INDEX 01 00:00:00
FILE "07 - Sun Ra - Discipline 33.wav" WAVE
TRACK 07 AUDIO
TITLE "Discipline 33"
PERFORMER "Sun Ra"
INDEX 01 00:00:00
FILE "08 - Sun Ra - Untitled (Ra Solo).wav" WAVE
TRACK 08 AUDIO
TITLE "Untitled (Ra Solo)"
PERFORMER "Sun Ra"
INDEX 01 00:00:00
 
cd6
REM GENRE Jazz
REM DATE 2009
REM DISCID 1B0A6B03
REM COMMENT "ExactAudioCopy v0.99pb5"
PERFORMER "Sun Ra"
TITLE "Live At Slug's Saloon"
FILE "01 - Sun Ra - Stardust From Tomorrow.wav" WAVE
TRACK 01 AUDIO
TITLE "Stardust From Tomorrow"
PERFORMER "Sun Ra"
INDEX 01 00:00:00
FILE "02 - Sun Ra - The Shadow World.wav" WAVE
TRACK 02 AUDIO
TITLE "The Shadow World"
PERFORMER "Sun Ra"
INDEX 01 00:00:00
TRACK 03 AUDIO
TITLE "Why Go To The Moon?"
PERFORMER "Sun Ra"
INDEX 00 02:44:49
FILE "03 - Sun Ra - Why Go To The Moon .wav" WAVE
INDEX 01 00:00:00
Доп. информация:
Discs One to Three
Slug's Saloon
New York City
June 7, 1972
Discs Four To Six
Slug's Saloon
New York City
August 19, 1972
 
Об альбоме (сборнике)
"Even though Sun Ra and the Arkestra played at the legendary NY venue Slug's Saloon nearly every Monday night for five years, there is no documentation of their many shows there ~ until now. This deluxe, hand assembled six-CD set has two complete shows totaling six hours from June and August 1972. This is the group still into their psychedelic excursion back into their jazz roots with a newfound vengeance. A completely raucous blast of Sun Ra energy.
Exquisitely mastered audio, packaged in a custom case with ultra-gorgeous never-seen color photos of Sun Ra, and done specially for this release for the first time the exact complete track listings as provided by Christopher Trent (co-author of 'The Earthly Recordings of Sun Ra'). "-Transparency
 
Состав
Alto Saxophone, Flute, Oboe, Percussion – Marshall Allen
Alto Saxophone, Flute, Percussion – Danny Davis, Danny Ray Thompson
Bass – Bill Davis (5) (tracks: 4-1 to 6-3)
Bass Clarinet, Percussion – Eloe Omoe
Drums – Clifford Jarvis (tracks: 4-1 to 6-3), Harry Richards (tracks: 1-1 to 3-4)
Drums, Vocals – Lex Humphries
Keyboards, Vocals, Written-By – Sun Ra
Percussion – Odun, Stanley Morgan
Percussion, Bassoon, Flute – James Jacson
Percussion, Cello – Alzo Wright (tracks: 1-1 to 3-4)
Tenor Saxophone, Vocals, Percussion – John Gilmore
Trombone – Charles Stephens (tracks: 4-1 to 6-3)
Trumpet, Vocals – Akh Tal Ebah
Vocals [Space Ethnic Voices] – Cheryl Banks, Judith Holton, June Tyson, Ruth Wright
Any questions -> support@pro-jazz.com. По всем вопросам пишите -> support@pro-jazz.com
00:02
313
Нет комментариев. Ваш будет первым!