Поиск

(Free Jazz) Sun Ra All Stars (Lester Bowie, Don Cherry, Marshall Allen, John Gilmore, Archie Shepp, Richard Davis, Famoudou Don Moye, Philly Joe Jones, Clifford Jarvis) - Milan, Zurich, West Berlin, Paris - 2008, FLAC (tracks+.cue) lossless

(Free Jazz) Sun Ra All Stars (Lester Bowie, Don Cherry, Marshall Allen, John Gilmore, Archie Shepp, Richard Davis, Famoudou Don Moye, Philly Joe Jones, Clifford Jarvis) - Milan, Zurich, West Berlin, Paris - 2008, FLAC (tracks+.cue) lossless
Треклист:
Sun Ra All Stars / Milan, Zurich, West Berlin, Paris
Жанр: Free Jazz
Страна-производитель диска: США
Год издания диска: 2008
Издатель (лейбл): Transparency
Номер по каталогу: 0311
Страна: Сатурн, США
Аудио кодек: FLAC (*.flac)
Тип рипа: tracks+.cue
Битрейт аудио: lossless
Продолжительность: 4:59:48
Источник (релизер): другой трекер (doughins)
Наличие сканов в содержимом раздачи: да
Треклист:
Teatro Ciak, Milan, October 27, 1983
1-1 Unidentified Title 12:16
1-2 Unidentified Title 10:11
1-3 Unidentified Title 12:49
1-4 East Of The Sun 5:41
1-5 King Porter Stomp 1:37
Teatro Ciak, Milan, October 27, 1983
2-1 King Porter Stomp 1:20
2-2 What's New? 11:41
2-3 Unidentified Ra Piano Solo 2:41
2-4 Cocktails For Two 3:19
2-5 Spontaneous Simplicity 9:15
2-6 Space Is The Place 10:10
2-7 Unidentified Title 3:46
Zürich Jazz Festival, October 28, 1983
3-1 Unidentified Title 10:05
3-2 Unidentified Ra Piano Solo 4:11
3-3 Unidentified Blues 8:25
3-4 Lights On A Satellite 7:07
3-5 What's New? 4:12
3-6 Cocktails For Two 4:12
3-7 Poinciana 15:24
Berliner Jazztage, Philharmonie, West Berlin, October 29, 1983
4-1 Stars That Shine Darkly 12:35
4-2 Unidentified Jam #1 4:15
4-3 Somewhere Else 8:08
4-4 Early Morning Blues 9:10
4-5 Poinciana 15:20
4-6 Unidentified Title 2:42
4-7 The Shadow World 22:17
4-8 Unidentified Jam #2 5:26
Paris, November 1, 1983
5-1 Unidentified Title 7:11
5-2 Unidentified Title 10:43
5-3 Over The Rainbow 11:10
5-4 Lights On A Satellite 9:05
5-5 What's New? 14:26
5-6 Poinciana 14:30
5-7 'Round Midnight 6:55
 
Лог создания рипа
 
i
EAC extraction logfile from 9. June 2008, 0:31 for CD
Sun Ra All Stars / Milan, Zurich, West Berlin, Paris Disc 1
Used drive : SONY DVD-ROM DDU1615 Adapter: 0 ID: 0
Read mode : Secure with NO C2, accurate stream, disable cache
Read offset correction : 6
Overread into Lead-In and Lead-Out : No
Used output format : C:\Program Files\FLAC\flac.exe (User Defined Encoder)
128 kBit/s
Additional command line options : -V -8 -T "artist=%a" -T "title=%t" -T "album=%g" -T "date=%y" -T "tracknumber=%n" -T "genre=%m" %s
Other options :
Fill up missing offset samples with silence : Yes
Delete leading and trailing silent blocks : No
Installed external ASPI interface
Track 1
Filename D:\DOWNLOADS\__UPLOADS\Sun Ra All Stars - Milan, Zurich, West Berlin, Paris Disc 1 (1983) [FLAC]\01 - unidentified title.wav
Pre-gap length 0:00:02.00
Peak level 98.6 %
Track quality 100.0 %
Test CRC 2C944673
Copy CRC 2C944673
Copy OK
Track 2
Filename D:\DOWNLOADS\__UPLOADS\Sun Ra All Stars - Milan, Zurich, West Berlin, Paris Disc 1 (1983) [FLAC]\02 - unidentified title.wav
Peak level 95.8 %
Track quality 100.0 %
Test CRC 3361F360
Copy CRC 3361F360
Copy OK
Track 3
Filename D:\DOWNLOADS\__UPLOADS\Sun Ra All Stars - Milan, Zurich, West Berlin, Paris Disc 1 (1983) [FLAC]\03 - unidentified title.wav
Peak level 94.3 %
Track quality 100.0 %
Test CRC 715B76F5
Copy CRC 715B76F5
Copy OK
Track 4
Filename D:\DOWNLOADS\__UPLOADS\Sun Ra All Stars - Milan, Zurich, West Berlin, Paris Disc 1 (1983) [FLAC]\04 - East of the Sun.wav
Peak level 98.6 %
Track quality 99.9 %
Test CRC 9DE07070
Copy CRC 9DE07070
Copy OK
Track 5
Filename D:\DOWNLOADS\__UPLOADS\Sun Ra All Stars - Milan, Zurich, West Berlin, Paris Disc 1 (1983) [FLAC]\05 - King Porter Stomp.wav
Peak level 88.6 %
Track quality 99.9 %
Test CRC 0A059BD5
Copy CRC 0A059BD5
Copy OK
No errors occured
End of status report
 
ii
EAC extraction logfile from 3. October 2008, 23:55 for CD
Sun Ra All Stars / Milan, Zurich, West Berlin, Paris Disc 2
Used drive : PBDS CDRWDVD DH-48C2S Adapter: 1 ID: 1
Read mode : Secure with NO C2, accurate stream, disable cache
Read offset correction : 6
Overread into Lead-In and Lead-Out : No
Used output format : C:\Program Files\FLAC\flac.exe (User Defined Encoder)
128 kBit/s
Additional command line options : -V -8 -T "artist=%a" -T "title=%t" -T "album=%g" -T "date=%y" -T "tracknumber=%n" -T "genre=%m" %s
Other options :
Fill up missing offset samples with silence : Yes
Delete leading and trailing silent blocks : No
Native Win32 interface for Win NT & 2000
Track 1
Filename D:\DOWNLOADS\_UPLOADS\Sun Ra All Stars - Milan, Zurich, West Berlin, Paris Disc 2 (1983) [FLAC]\01 - King Porter Stopm.wav
Pre-gap length 0:00:02.00
Peak level 98.9 %
Track quality 100.0 %
Test CRC C4ABAC84
Copy CRC C4ABAC84
Copy OK
Track 2
Filename D:\DOWNLOADS\_UPLOADS\Sun Ra All Stars - Milan, Zurich, West Berlin, Paris Disc 2 (1983) [FLAC]\02 - What'ss New.wav
Peak level 92.9 %
Track quality 100.0 %
Test CRC FC446A49
Copy CRC FC446A49
Copy OK
Track 3
Filename D:\DOWNLOADS\_UPLOADS\Sun Ra All Stars - Milan, Zurich, West Berlin, Paris Disc 2 (1983) [FLAC]\03 - Unidentified Ra Piano Solo.wav
Peak level 92.8 %
Track quality 100.0 %
Test CRC 2F1A7FAF
Copy CRC 2F1A7FAF
Copy OK
Track 4
Filename D:\DOWNLOADS\_UPLOADS\Sun Ra All Stars - Milan, Zurich, West Berlin, Paris Disc 2 (1983) [FLAC]\04 - Cocktails for Two.wav
Peak level 96.8 %
Track quality 100.0 %
Test CRC CFFBE77B
Copy CRC CFFBE77B
Copy OK
Track 5
Filename D:\DOWNLOADS\_UPLOADS\Sun Ra All Stars - Milan, Zurich, West Berlin, Paris Disc 2 (1983) [FLAC]\05 - Spontaneous Simplicity.wav
Peak level 98.9 %
Track quality 100.0 %
Test CRC 7A0B6563
Copy CRC 7A0B6563
Copy OK
Track 6
Filename D:\DOWNLOADS\_UPLOADS\Sun Ra All Stars - Milan, Zurich, West Berlin, Paris Disc 2 (1983) [FLAC]\06 - Space Is the Place-Unidentified Title.wav
Peak level 97.3 %
Track quality 99.9 %
Test CRC DF857D2F
Copy CRC DF857D2F
Copy OK
No errors occured
End of status report
 
iii
EAC extraction logfile from 4. October 2008, 0:45 for CD
Sun Ra All Stars / Milan, Zurich, West Berlin, Paris Disc 3
Used drive : PBDS CDRWDVD DH-48C2S Adapter: 1 ID: 1
Read mode : Secure with NO C2, accurate stream, disable cache
Read offset correction : 6
Overread into Lead-In and Lead-Out : No
Used output format : C:\Program Files\FLAC\flac.exe (User Defined Encoder)
128 kBit/s
Additional command line options : -V -8 -T "artist=%a" -T "title=%t" -T "album=%g" -T "date=%y" -T "tracknumber=%n" -T "genre=%m" %s
Other options :
Fill up missing offset samples with silence : Yes
Delete leading and trailing silent blocks : No
Native Win32 interface for Win NT & 2000
Track 1
Filename D:\DOWNLOADS\_UPLOADS\Sun Ra All Stars - Milan, Zurich, West Berlin, Paris Disc 3 (1983) [FLAC]\01 - Unidentified Title.wav
Pre-gap length 0:00:02.00
Peak level 100.0 %
Track quality 100.0 %
Test CRC 6B1B85B4
Copy CRC 6B1B85B4
Copy OK
Track 2
Filename D:\DOWNLOADS\_UPLOADS\Sun Ra All Stars - Milan, Zurich, West Berlin, Paris Disc 3 (1983) [FLAC]\02 - Unidentified Ra Piano Solo.wav
Peak level 98.9 %
Track quality 100.0 %
Test CRC FD808606
Copy CRC FD808606
Copy OK
Track 3
Filename D:\DOWNLOADS\_UPLOADS\Sun Ra All Stars - Milan, Zurich, West Berlin, Paris Disc 3 (1983) [FLAC]\03 - Unidentified Blues.wav
Peak level 100.0 %
Track quality 100.0 %
Test CRC 1F9E96F7
Copy CRC 1F9E96F7
Copy OK
Track 4
Filename D:\DOWNLOADS\_UPLOADS\Sun Ra All Stars - Milan, Zurich, West Berlin, Paris Disc 3 (1983) [FLAC]\04 - Lights on a Satellite.wav
Peak level 85.4 %
Track quality 100.0 %
Test CRC BB7534A7
Copy CRC BB7534A7
Copy OK
Track 5
Filename D:\DOWNLOADS\_UPLOADS\Sun Ra All Stars - Milan, Zurich, West Berlin, Paris Disc 3 (1983) [FLAC]\05 - What's New.wav
Peak level 96.7 %
Track quality 100.0 %
Test CRC 0B59F1AB
Copy CRC 0B59F1AB
Copy OK
Track 6
Filename D:\DOWNLOADS\_UPLOADS\Sun Ra All Stars - Milan, Zurich, West Berlin, Paris Disc 3 (1983) [FLAC]\06 - Cocktails for Two.wav
Peak level 91.5 %
Track quality 100.0 %
Test CRC 9D56125A
Copy CRC 9D56125A
Copy OK
Track 7
Filename D:\DOWNLOADS\_UPLOADS\Sun Ra All Stars - Milan, Zurich, West Berlin, Paris Disc 3 (1983) [FLAC]\07 - Poinciana.wav
Peak level 91.9 %
Track quality 100.0 %
Test CRC F0E77FF8
Copy CRC F0E77FF8
Copy OK
No errors occured
End of status report
 
iv
EAC extraction logfile from 4. October 2008, 10:03 for CD
Sun Ra All Stars / Milan, Zurich, West Berlin, Paris Disc 4
Used drive : PBDS CDRWDVD DH-48C2S Adapter: 1 ID: 1
Read mode : Secure with NO C2, accurate stream, disable cache
Read offset correction : 6
Overread into Lead-In and Lead-Out : No
Used output format : C:\Program Files\FLAC\flac.exe (User Defined Encoder)
128 kBit/s
Additional command line options : -V -8 -T "artist=%a" -T "title=%t" -T "album=%g" -T "date=%y" -T "tracknumber=%n" -T "genre=%m" %s
Other options :
Fill up missing offset samples with silence : Yes
Delete leading and trailing silent blocks : No
Native Win32 interface for Win NT & 2000
Track 1
Filename D:\DOWNLOADS\_UPLOADS\Sun Ra All Stars - Milan, Zurich, West Berlin, Paris Disc 4 (1983) [FLAC]\01 - Stars That Shine Darkly.wav
Pre-gap length 0:00:02.00
Peak level 91.1 %
Track quality 100.0 %
Test CRC 3519BD97
Copy CRC 3519BD97
Copy OK
Track 2
Filename D:\DOWNLOADS\_UPLOADS\Sun Ra All Stars - Milan, Zurich, West Berlin, Paris Disc 4 (1983) [FLAC]\02 - Unidentified Jam No. 1.wav
Peak level 94.3 %
Track quality 99.9 %
Test CRC C69CC777
Copy CRC C69CC777
Copy OK
Track 3
Filename D:\DOWNLOADS\_UPLOADS\Sun Ra All Stars - Milan, Zurich, West Berlin, Paris Disc 4 (1983) [FLAC]\03 - Somewhere Else.wav
Peak level 98.9 %
Track quality 100.0 %
Test CRC 19A0147A
Copy CRC 19A0147A
Copy OK
Track 4
Filename D:\DOWNLOADS\_UPLOADS\Sun Ra All Stars - Milan, Zurich, West Berlin, Paris Disc 4 (1983) [FLAC]\04 - Early Morning Blues.wav
Peak level 94.3 %
Track quality 100.0 %
Test CRC 97096849
Copy CRC 97096849
Copy OK
Track 5
Filename D:\DOWNLOADS\_UPLOADS\Sun Ra All Stars - Milan, Zurich, West Berlin, Paris Disc 4 (1983) [FLAC]\05 - Poinciana.wav
Peak level 93.9 %
Track quality 100.0 %
Test CRC 5CC99D8B
Copy CRC 5CC99D8B
Copy OK
Track 6
Filename D:\DOWNLOADS\_UPLOADS\Sun Ra All Stars - Milan, Zurich, West Berlin, Paris Disc 4 (1983) [FLAC]\06 - Unidentified Title.wav
Peak level 75.5 %
Track quality 100.0 %
Test CRC 6BEE9A3A
Copy CRC 6BEE9A3A
Copy OK
Track 7
Filename D:\DOWNLOADS\_UPLOADS\Sun Ra All Stars - Milan, Zurich, West Berlin, Paris Disc 4 (1983) [FLAC]\07 - The Shadow World.wav
Peak level 98.9 %
Track quality 99.9 %
Test CRC 806183D3
Copy CRC 806183D3
Copy OK
Track 8
Filename D:\DOWNLOADS\_UPLOADS\Sun Ra All Stars - Milan, Zurich, West Berlin, Paris Disc 4 (1983) [FLAC]\08 - Unidentified Jam No. 2.wav
Peak level 73.0 %
Track quality 100.0 %
Test CRC DDDF5A9E
Copy CRC DDDF5A9E
Copy OK
No errors occured
End of status report
 
v
EAC extraction logfile from 4. October 2008, 10:33 for CD
Sun Ra All Stars / Milan, Zurich, West Berlin, Paris Disc 5
Used drive : PBDS CDRWDVD DH-48C2S Adapter: 1 ID: 1
Read mode : Secure with NO C2, accurate stream, disable cache
Read offset correction : 6
Overread into Lead-In and Lead-Out : No
Used output format : C:\Program Files\FLAC\flac.exe (User Defined Encoder)
128 kBit/s
Additional command line options : -V -8 -T "artist=%a" -T "title=%t" -T "album=%g" -T "date=%y" -T "tracknumber=%n" -T "genre=%m" %s
Other options :
Fill up missing offset samples with silence : Yes
Delete leading and trailing silent blocks : No
Native Win32 interface for Win NT & 2000
Track 1
Filename D:\DOWNLOADS\_UPLOADS\Sun Ra All Stars - Milan, Zurich, West Berlin, Paris Disc 5 (1983) [FLAC]\01 - unidentified title.wav
Pre-gap length 0:00:02.00
Peak level 96.7 %
Track quality 100.0 %
Test CRC 84C5DD5F
Copy CRC 84C5DD5F
Copy OK
Track 2
Filename D:\DOWNLOADS\_UPLOADS\Sun Ra All Stars - Milan, Zurich, West Berlin, Paris Disc 5 (1983) [FLAC]\02 - unidentified title.wav
Peak level 92.5 %
Track quality 100.0 %
Test CRC ED2A644E
Copy CRC ED2A644E
Copy OK
Track 3
Filename D:\DOWNLOADS\_UPLOADS\Sun Ra All Stars - Milan, Zurich, West Berlin, Paris Disc 5 (1983) [FLAC]\03 - Over the Rainbow.wav
Peak level 98.9 %
Track quality 99.9 %
Test CRC B139F279
Copy CRC B139F279
Copy OK
Track 4
Filename D:\DOWNLOADS\_UPLOADS\Sun Ra All Stars - Milan, Zurich, West Berlin, Paris Disc 5 (1983) [FLAC]\04 - Lights on a Satellite (Ra).wav
Peak level 93.1 %
Track quality 100.0 %
Test CRC 364B6656
Copy CRC 364B6656
Copy OK
Track 5
Filename D:\DOWNLOADS\_UPLOADS\Sun Ra All Stars - Milan, Zurich, West Berlin, Paris Disc 5 (1983) [FLAC]\05 - What's New .wav
Peak level 95.1 %
Track quality 100.0 %
Test CRC C04ADCDC
Copy CRC C04ADCDC
Copy OK
Track 6
Filename D:\DOWNLOADS\_UPLOADS\Sun Ra All Stars - Milan, Zurich, West Berlin, Paris Disc 5 (1983) [FLAC]\06 - What's New Part II.wav
Peak level 84.7 %
Track quality 100.0 %
Test CRC D4003B54
Copy CRC D4003B54
Copy OK
Track 7
Filename D:\DOWNLOADS\_UPLOADS\Sun Ra All Stars - Milan, Zurich, West Berlin, Paris Disc 5 (1983) [FLAC]\07 - Poinciana.wav
Peak level 89.1 %
Track quality 99.9 %
Test CRC F9A59621
Copy CRC F9A59621
Copy OK
Track 8
Filename D:\DOWNLOADS\_UPLOADS\Sun Ra All Stars - Milan, Zurich, West Berlin, Paris Disc 5 (1983) [FLAC]\08 - Round Midnight.wav
Peak level 88.0 %
Track quality 99.9 %
Test CRC 9F55C449
Copy CRC 9F55C449
Copy OK
No errors occured
End of status report
 
Содержание индексной карты (.CUE)
 
i
REM GENRE Jazz
REM DATE 1983
REM DISCID 340A4405
REM COMMENT "ExactAudioCopy v0.95b3"
PERFORMER "Sun Ra All Stars"
TITLE "Milan, Zurich, West Berlin, Paris Disc 1"
FILE "Sun Ra All Stars - Milan, Zurich, West Berlin, Paris Disc 1 (1983) [FLAC]\01 - unidentified title.wav" WAVE
TRACK 01 AUDIO
TITLE "unidentified title"
PERFORMER "Sun Ra All Stars"
INDEX 01 00:00:00
FILE "Sun Ra All Stars - Milan, Zurich, West Berlin, Paris Disc 1 (1983) [FLAC]\02 - unidentified title.wav" WAVE
TRACK 02 AUDIO
TITLE "unidentified title"
PERFORMER "Sun Ra All Stars"
INDEX 01 00:00:00
FILE "Sun Ra All Stars - Milan, Zurich, West Berlin, Paris Disc 1 (1983) [FLAC]\03 - unidentified title.wav" WAVE
TRACK 03 AUDIO
TITLE "unidentified title"
PERFORMER "Sun Ra All Stars"
INDEX 01 00:00:00
FILE "Sun Ra All Stars - Milan, Zurich, West Berlin, Paris Disc 1 (1983) [FLAC]\04 - East of the Sun.wav" WAVE
TRACK 04 AUDIO
TITLE "East of the Sun"
PERFORMER "Sun Ra All Stars"
INDEX 01 00:00:00
FILE "Sun Ra All Stars - Milan, Zurich, West Berlin, Paris Disc 1 (1983) [FLAC]\05 - King Porter Stomp.wav" WAVE
TRACK 05 AUDIO
TITLE "King Porter Stomp"
PERFORMER "Sun Ra All Stars"
INDEX 01 00:00:00
 
ii
REM DATE 1983
REM DISCID 46099C06
REM COMMENT "ExactAudioCopy v0.95b3"
PERFORMER "Sun Ra All Stars"
TITLE "Milan, Zurich, West Berlin, Paris Disc 2"
FILE "Sun Ra All Stars - Milan, Zurich, West Berlin, Paris Disc 2 (1983) [FLAC]\01 - King Porter Stopm.wav" WAVE
TRACK 01 AUDIO
TITLE "King Porter Stopm"
PERFORMER "Sun Ra All Stars"
INDEX 01 00:00:00
FILE "Sun Ra All Stars - Milan, Zurich, West Berlin, Paris Disc 2 (1983) [FLAC]\02 - What'ss New.wav" WAVE
TRACK 02 AUDIO
TITLE "What'ss New"
PERFORMER "Sun Ra All Stars"
INDEX 01 00:00:00
FILE "Sun Ra All Stars - Milan, Zurich, West Berlin, Paris Disc 2 (1983) [FLAC]\03 - Unidentified Ra Piano Solo.wav" WAVE
TRACK 03 AUDIO
TITLE "Unidentified Ra Piano Solo"
PERFORMER "Sun Ra All Stars"
INDEX 01 00:00:00
FILE "Sun Ra All Stars - Milan, Zurich, West Berlin, Paris Disc 2 (1983) [FLAC]\04 - Cocktails for Two.wav" WAVE
TRACK 04 AUDIO
TITLE "Cocktails for Two"
PERFORMER "Sun Ra All Stars"
INDEX 01 00:00:00
FILE "Sun Ra All Stars - Milan, Zurich, West Berlin, Paris Disc 2 (1983) [FLAC]\05 - Spontaneous Simplicity.wav" WAVE
TRACK 05 AUDIO
TITLE "Spontaneous Simplicity"
PERFORMER "Sun Ra All Stars"
INDEX 01 00:00:00
FILE "Sun Ra All Stars - Milan, Zurich, West Berlin, Paris Disc 2 (1983) [FLAC]\06 - Space Is the Place-Unidentified Title.wav" WAVE
TRACK 06 AUDIO
TITLE "Space Is the Place-Unidentified Title"
PERFORMER "Sun Ra All Stars"
INDEX 01 00:00:00
 
iii
REM DATE 1983
REM DISCID 690E5107
REM COMMENT "ExactAudioCopy v0.95b3"
PERFORMER "Sun Ra All Stars "
TITLE " Milan, Zurich, West Berlin, Paris Disc 3"
FILE "Sun Ra All Stars - Milan, Zurich, West Berlin, Paris Disc 3 (1983) [FLAC]\01 - Unidentified Title.wav" WAVE
TRACK 01 AUDIO
TITLE "Unidentified Title"
PERFORMER "Sun Ra All Stars "
INDEX 01 00:00:00
FILE "Sun Ra All Stars - Milan, Zurich, West Berlin, Paris Disc 3 (1983) [FLAC]\02 - Unidentified Ra Piano Solo.wav" WAVE
TRACK 02 AUDIO
TITLE "Unidentified Ra Piano Solo"
PERFORMER "Sun Ra All Stars "
INDEX 01 00:00:00
FILE "Sun Ra All Stars - Milan, Zurich, West Berlin, Paris Disc 3 (1983) [FLAC]\03 - Unidentified Blues.wav" WAVE
TRACK 03 AUDIO
TITLE "Unidentified Blues"
PERFORMER "Sun Ra All Stars "
INDEX 01 00:00:00
FILE "Sun Ra All Stars - Milan, Zurich, West Berlin, Paris Disc 3 (1983) [FLAC]\04 - Lights on a Satellite.wav" WAVE
TRACK 04 AUDIO
TITLE "Lights on a Satellite"
PERFORMER "Sun Ra All Stars "
INDEX 01 00:00:00
FILE "Sun Ra All Stars - Milan, Zurich, West Berlin, Paris Disc 3 (1983) [FLAC]\05 - What's New.wav" WAVE
TRACK 05 AUDIO
TITLE "What's New"
PERFORMER "Sun Ra All Stars "
INDEX 01 00:00:00
FILE "Sun Ra All Stars - Milan, Zurich, West Berlin, Paris Disc 3 (1983) [FLAC]\06 - Cocktails for Two.wav" WAVE
TRACK 06 AUDIO
TITLE "Cocktails for Two"
PERFORMER "Sun Ra All Stars "
INDEX 01 00:00:00
FILE "Sun Ra All Stars - Milan, Zurich, West Berlin, Paris Disc 3 (1983) [FLAC]\07 - Poinciana.wav" WAVE
TRACK 07 AUDIO
TITLE "Poinciana"
PERFORMER "Sun Ra All Stars "
INDEX 01 00:00:00
 
iv
REM DATE 1983
REM DISCID 5E12B808
REM COMMENT "ExactAudioCopy v0.95b3"
PERFORMER "Sun Ra All Stars"
TITLE "Milan, Zurich, West Berlin, Paris Disc 4"
FILE "Sun Ra All Stars - Milan, Zurich, West Berlin, Paris Disc 4 (1983) [FLAC]\01 - Stars That Shine Darkly.wav" WAVE
TRACK 01 AUDIO
TITLE "Stars That Shine Darkly"
PERFORMER "Sun Ra All Stars"
INDEX 01 00:00:00
FILE "Sun Ra All Stars - Milan, Zurich, West Berlin, Paris Disc 4 (1983) [FLAC]\02 - Unidentified Jam No. 1.wav" WAVE
TRACK 02 AUDIO
TITLE "Unidentified Jam No. 1"
PERFORMER "Sun Ra All Stars"
INDEX 01 00:00:00
FILE "Sun Ra All Stars - Milan, Zurich, West Berlin, Paris Disc 4 (1983) [FLAC]\03 - Somewhere Else.wav" WAVE
TRACK 03 AUDIO
TITLE "Somewhere Else"
PERFORMER "Sun Ra All Stars"
INDEX 01 00:00:00
FILE "Sun Ra All Stars - Milan, Zurich, West Berlin, Paris Disc 4 (1983) [FLAC]\04 - Early Morning Blues.wav" WAVE
TRACK 04 AUDIO
TITLE "Early Morning Blues"
PERFORMER "Sun Ra All Stars"
INDEX 01 00:00:00
FILE "Sun Ra All Stars - Milan, Zurich, West Berlin, Paris Disc 4 (1983) [FLAC]\05 - Poinciana.wav" WAVE
TRACK 05 AUDIO
TITLE "Poinciana"
PERFORMER "Sun Ra All Stars"
INDEX 01 00:00:00
FILE "Sun Ra All Stars - Milan, Zurich, West Berlin, Paris Disc 4 (1983) [FLAC]\06 - Unidentified Title.wav" WAVE
TRACK 06 AUDIO
TITLE "Unidentified Title"
PERFORMER "Sun Ra All Stars"
INDEX 01 00:00:00
FILE "Sun Ra All Stars - Milan, Zurich, West Berlin, Paris Disc 4 (1983) [FLAC]\07 - The Shadow World.wav" WAVE
TRACK 07 AUDIO
TITLE "The Shadow World"
PERFORMER "Sun Ra All Stars"
INDEX 01 00:00:00
FILE "Sun Ra All Stars - Milan, Zurich, West Berlin, Paris Disc 4 (1983) [FLAC]\08 - Unidentified Jam No. 2.wav" WAVE
TRACK 08 AUDIO
TITLE "Unidentified Jam No. 2"
PERFORMER "Sun Ra All Stars"
INDEX 01 00:00:00
 
v
REM DATE 1983
REM DISCID 6A115808
REM COMMENT "ExactAudioCopy v0.95b3"
PERFORMER "Sun Ra All Stars"
TITLE "Milan, Zurich, West Berlin, Paris Disc 5"
FILE "Sun Ra All Stars - Milan, Zurich, West Berlin, Paris Disc 5 (1983) [FLAC]\01 - unidentified title.wav" WAVE
TRACK 01 AUDIO
TITLE "unidentified title"
PERFORMER "Sun Ra All Stars"
INDEX 01 00:00:00
FILE "Sun Ra All Stars - Milan, Zurich, West Berlin, Paris Disc 5 (1983) [FLAC]\02 - unidentified title.wav" WAVE
TRACK 02 AUDIO
TITLE "unidentified title"
PERFORMER "Sun Ra All Stars"
INDEX 01 00:00:00
FILE "Sun Ra All Stars - Milan, Zurich, West Berlin, Paris Disc 5 (1983) [FLAC]\03 - Over the Rainbow.wav" WAVE
TRACK 03 AUDIO
TITLE "Over the Rainbow"
PERFORMER "Sun Ra All Stars"
INDEX 01 00:00:00
FILE "Sun Ra All Stars - Milan, Zurich, West Berlin, Paris Disc 5 (1983) [FLAC]\04 - Lights on a Satellite (Ra).wav" WAVE
TRACK 04 AUDIO
TITLE "Lights on a Satellite (Ra)"
PERFORMER "Sun Ra All Stars"
INDEX 01 00:00:00
FILE "Sun Ra All Stars - Milan, Zurich, West Berlin, Paris Disc 5 (1983) [FLAC]\05 - What's New .wav" WAVE
TRACK 05 AUDIO
TITLE "What's New?"
PERFORMER "Sun Ra All Stars"
INDEX 01 00:00:00
FILE "Sun Ra All Stars - Milan, Zurich, West Berlin, Paris Disc 5 (1983) [FLAC]\06 - What's New Part II.wav" WAVE
TRACK 06 AUDIO
TITLE "What's New? Part II"
PERFORMER "Sun Ra All Stars"
INDEX 01 00:00:00
FILE "Sun Ra All Stars - Milan, Zurich, West Berlin, Paris Disc 5 (1983) [FLAC]\07 - Poinciana.wav" WAVE
TRACK 07 AUDIO
TITLE "Poinciana"
PERFORMER "Sun Ra All Stars"
INDEX 01 00:00:00
FILE "Sun Ra All Stars - Milan, Zurich, West Berlin, Paris Disc 5 (1983) [FLAC]\08 - Round Midnight.wav" WAVE
TRACK 08 AUDIO
TITLE "Round Midnight"
PERFORMER "Sun Ra All Stars"
INDEX 01 00:00:00
 
Лог проверки качества
 
i
AUDIOCHECKER v2.0 beta (build 457) - by Dester - opdester@freemail.hu
~~~~~~~~~~~~~~~~~~~~~~~~~~~~~~~~~~
-=== DO NOT EDIT THIS FILE! ===-
Path: ...\Sun Ra All Stars - Milan, Zurich, West Berlin, Paris Disc 1 (1983) [FLAC]
01 -=- 01 - unidentified title.flac -=- CDDA (99%)
02 -=- 02 - unidentified title.flac -=- CDDA (100%)
03 -=- 03 - unidentified title.flac -=- CDDA (100%)
04 -=- 04 - East of the Sun.flac -=- CDDA (100%)
05 -=- 05 - King Porter Stomp.flac -=- CDDA (100%)
Summary 99,80% CDDA
142630948
 
ii
AUDIOCHECKER v2.0 beta (build 457) - by Dester - opdester@freemail.hu
~~~~~~~~~~~~~~~~~~~~~~~~~~~~~~~~~~
-=== DO NOT EDIT THIS FILE! ===-
Path: ...\Sun Ra All Stars - Milan, Zurich, West Berlin, Paris Disc 2 (1983) [FLAC]
01 -=- 01 - King Porter Stopm.flac -=- CDDA (100%)
02 -=- 02 - What'ss New.flac -=- CDDA (100%)
03 -=- 03 - Unidentified Ra Piano Solo.flac -=- CDDA (100%)
04 -=- 04 - Cocktails for Two.flac -=- CDDA (100%)
05 -=- 05 - Spontaneous Simplicity.flac -=- CDDA (100%)
06 -=- 06 - Space Is the Place-Unidentified Title.flac -=- CDDA (100%)
Summary 100,00% CDDA
113310564
 
iii
AUDIOCHECKER v2.0 beta (build 457) - by Dester - opdester@freemail.hu
~~~~~~~~~~~~~~~~~~~~~~~~~~~~~~~~~~
-=== DO NOT EDIT THIS FILE! ===-
Path: ...\Sun Ra All Stars - Milan, Zurich, West Berlin, Paris Disc 3 (1983) [FLAC]
01 -=- 01 - Unidentified Title.flac -=- CDDA (100%)
02 -=- 02 - Unidentified Ra Piano Solo.flac -=- CDDA (99%)
03 -=- 03 - Unidentified Blues.flac -=- CDDA (100%)
04 -=- 04 - Lights on a Satellite.flac -=- CDDA (100%)
05 -=- 05 - What's New.flac -=- CDDA (94%)
06 -=- 06 - Cocktails for Two.flac -=- CDDA (100%)
07 -=- 07 - Poinciana.flac -=- CDDA (92%)
Summary 97,86% CDDA
175770356
 
iv
AUDIOCHECKER v2.0 beta (build 457) - by Dester - opdester@freemail.hu
~~~~~~~~~~~~~~~~~~~~~~~~~~~~~~~~~~
-=== DO NOT EDIT THIS FILE! ===-
Path: ...\Sun Ra All Stars - Milan, Zurich, West Berlin, Paris Disc 4 (1983) [FLAC]
01 -=- 01 - Stars That Shine Darkly.flac -=- CDDA (100%)
02 -=- 02 - Unidentified Jam No. 1.flac -=- CDDA (100%)
03 -=- 03 - Somewhere Else.flac -=- CDDA (100%)
04 -=- 04 - Early Morning Blues.flac -=- CDDA (100%)
05 -=- 05 - Poinciana.flac -=- CDDA (100%)
06 -=- 06 - Unidentified Title.flac -=- CDDA (100%)
07 -=- 07 - The Shadow World.flac -=- CDDA (100%)
08 -=- 08 - Unidentified Jam No. 2.flac -=- CDDA (100%)
Summary 100,00% CDDA
225399732
 
v
AUDIOCHECKER v2.0 beta (build 457) - by Dester - opdester@freemail.hu
~~~~~~~~~~~~~~~~~~~~~~~~~~~~~~~~~~
-=== DO NOT EDIT THIS FILE! ===-
Path: ...\Sun Ra All Stars - Milan, Zurich, West Berlin, Paris Disc 5 (1983) [FLAC]
01 -=- 01 - unidentified title.flac -=- ERROR
02 -=- 02 - unidentified title.flac -=- ERROR
03 -=- 03 - Over the Rainbow.flac -=- ERROR
04 -=- 04 - Lights on a Satellite (Ra).flac -=- ERROR
05 -=- 05 - What's New .flac -=- MPEG (100%)
06 -=- 06 - What's New Part II.flac -=- MPEG (100%)
07 -=- 07 - Poinciana.flac -=- MPEG (100%)
08 -=- 08 - Round Midnight.flac -=- MPEG (100%)
Summary 0,00% CDDA
245713876
 
Скриншот спектра частот (v)
 
Об альбоме (сборнике)
5 concerts from Milan, Zurich, West Berlin and Paris. Recorded on the European tour between October 27, 1983 and November 1, 1983.
 
Состав
Sun Ra - piano, keyboards, vocals
Lester Bowie - trumpet
Don Cherry - trumpet, vocals
Marshall Allen - alto saxophone, flute, oboe
John Gilmore - tenor saxophone, vocals
Archie Shepp - tenor & soprano saxophones, vocals
Richard Davis - bass
Famoudou Don Moye - drums, percussion
Philly Joe Jones - drums
Clifford Jarvis - drums
По всем вопросам пишите личное сообщение пользователю M0p94ok.
11:13
540
Нет комментариев. Ваш будет первым!