Вы используете незарегистрированную версию компонента "Вкладки"!

Поиск

(Free Jazz, Experimental Big Band) Sun Ra - Janus - 1999 (1967-70), FLAC (tracks+.cue) lossless

(Free Jazz, Experimental Big Band) Sun Ra - Janus - 1999 (1967-70), FLAC (tracks+.cue) lossless
Треклист:
Sun Ra / Janus
Жанр: Free Jazz, Experimental Big Band
Страна-производитель диска: США
Год издания диска: 1999 (1967-70)
Издатель (лейбл): 1201 Music
Номер по каталогу: 9012-2
Страна: Сатурн, США
Аудио кодек: FLAC (*.flac)
Тип рипа: tracks+.cue
Битрейт аудио: lossless
Продолжительность: 34:56
Источник (релизер): вот.сиди (rroonnaann)
Наличие сканов в содержимом раздачи: нет
Треклист:
1. Island in the Sun
2. The Invisible Shield / Janus
3. Velvet
4. Joy
1 - Variety Recording Studio, NYC, between 1968 and 1970.
2a - Recorded mono, probably at a live performance, 1970.
2b - Recorded at Sun Studios, NYC, 1967 or '68 (Sun Ra solo) / Recorded at Choreographers' Workshop, NYC, 1963 (group).
3 - Recorded in early 1968; it is different from a live recording from 1969 previously known to discographers.
4 - Recorded live in NYC, early 1968.
 
Лог создания рипа
X Lossless Decoder version 20100123 (115.4)
XLD extraction logfile from 2010-03-22 20:19:43 +0100
Sun Ra / Janus
Used drive : HL-DT-ST DVDRW GSA-S10N (revision BP08)
Use cdparanoia mode : YES (CDParanoia III 10.2 engine)
Disable audio cache : OK for the drive with cache less than 2750KB
Make use of C2 pointers : NO
Read offset correction : 667
Max retry count : 100
TOC of the extracted CD
Track | Start | Length | Start sector | End sector
---------------------------------------------------------
1 | 00:00:00 | 05:27:00 | 0 | 24524
2 | 05:27:00 | 12:44:62 | 24525 | 81886
3 | 18:11:62 | 07:26:48 | 81887 | 115384
4 | 25:38:35 | 09:17:07 | 115385 | 157166
List of alternate offset correction values
# | Absolute | Relative | Confidence
------------------------------------------
1 | 662 | -5 | 2
All Tracks
Album gain : -1.51 dB
Peak : 0.999969
Track 01
Filename : /XLD/Sun Ra - 2000 - Janus - FLAC/01 Island in the Sun.flac
Pre-gap length : 00:02:00
Track gain : -2.18 dB
Peak : 0.980896
CRC32 hash (test run) : D86394A9
CRC32 hash : D86394A9
CRC32 hash (skip zero) : 69A7ECDA
AccurateRip signature : E62A02BE
->Accurately ripped! (confidence 2)
(matched with the different offset correction value;
calculated using an additional offset of -5;
the signature after correction is: E889FFB1)
Statistics
Read error : 0
Skipped (treated as error) : 0
Edge jitter error (maybe fixed) : 0
Atom jitter error (maybe fixed) : 0
Drift error (maybe fixed) : 0
Dropped bytes error (maybe fixed) : 0
Duplicated bytes error (maybe fixed) : 0
Inconsistency in error sectors : 0
Track 02
Filename : /XLD/Sun Ra - 2000 - Janus - FLAC/02 The Invisible Shield / Janus.flac
Pre-gap length : 00:02:53
Track gain : -1.69 dB
Peak : 0.996613
CRC32 hash (test run) : 0837834E
CRC32 hash : 0837834E
CRC32 hash (skip zero) : 1B324D65
AccurateRip signature : 8C213D60
->Accurately ripped! (confidence 2)
(matched with the different offset correction value;
calculated using an additional offset of -5;
the signature after correction is: 675E2EEA)
Statistics
Read error : 0
Skipped (treated as error) : 0
Edge jitter error (maybe fixed) : 0
Atom jitter error (maybe fixed) : 0
Drift error (maybe fixed) : 0
Dropped bytes error (maybe fixed) : 0
Duplicated bytes error (maybe fixed) : 0
Inconsistency in error sectors : 0
Track 03
Filename : /XLD/Sun Ra - 2000 - Janus - FLAC/03 Velvet.flac
Pre-gap length : 00:01:55
Track gain : -1.12 dB
Peak : 0.990936
CRC32 hash (test run) : 6B5DE4E7
CRC32 hash : 6B5DE4E7
CRC32 hash (skip zero) : E89B9F2B
AccurateRip signature : C9EFE661
->Accurately ripped! (confidence 2)
(matched with the different offset correction value;
calculated using an additional offset of -5;
the signature after correction is: 261AF0D5)
Statistics
Read error : 0
Skipped (treated as error) : 0
Edge jitter error (maybe fixed) : 0
Atom jitter error (maybe fixed) : 0
Drift error (maybe fixed) : 0
Dropped bytes error (maybe fixed) : 0
Duplicated bytes error (maybe fixed) : 0
Inconsistency in error sectors : 0
Track 04
Filename : /XLD/Sun Ra - 2000 - Janus - FLAC/04 Joy.flac
Pre-gap length : 00:03:58
Track gain : -1.12 dB
Peak : 0.999969
CRC32 hash (test run) : 3D59F0BA
CRC32 hash : 3D59F0BA
CRC32 hash (skip zero) : 1C3C76D7
AccurateRip signature : F9AA3BC8
->Accurately ripped! (confidence 2)
(matched with the different offset correction value;
calculated using an additional offset of -5;
the signature after correction is: 34E8844B)
Statistics
Read error : 0
Skipped (treated as error) : 0
Edge jitter error (maybe fixed) : 0
Atom jitter error (maybe fixed) : 0
Drift error (maybe fixed) : 0
Dropped bytes error (maybe fixed) : 0
Duplicated bytes error (maybe fixed) : 0
Inconsistency in error sectors : 0
No errors occurred
End of status report
 
Содержание индексной карты (.CUE)
TITLE "Janus"
PERFORMER "Sun Ra"
REM GENRE "Jazz"
REM DATE 2000
REM REPLAYGAIN_ALBUM_GAIN -1.51 dB
REM REPLAYGAIN_ALBUM_PEAK 0.999969
FILE "01 Island in the Sun.wav" WAVE
TRACK 01 AUDIO
TITLE "Island in the Sun"
ISRC DEA769913801
REM REPLAYGAIN_TRACK_GAIN -2.18 dB
REM REPLAYGAIN_TRACK_PEAK 0.980896
INDEX 01 00:00:00
TRACK 02 AUDIO
TITLE "The Invisible Shield / Janus"
ISRC DEA769913802
REM REPLAYGAIN_TRACK_GAIN -1.69 dB
REM REPLAYGAIN_TRACK_PEAK 0.996613
INDEX 00 05:24:22
FILE "02 The Invisible Shield / Janus.wav" WAVE
INDEX 01 00:00:00
TRACK 03 AUDIO
TITLE "Velvet"
ISRC DEA769913804
REM REPLAYGAIN_TRACK_GAIN -1.12 dB
REM REPLAYGAIN_TRACK_PEAK 0.990936
INDEX 00 12:43:07
FILE "03 Velvet.wav" WAVE
INDEX 01 00:00:00
TRACK 04 AUDIO
TITLE "Joy"
ISRC DEA769913804
REM REPLAYGAIN_TRACK_GAIN -1.12 dB
REM REPLAYGAIN_TRACK_PEAK 0.999969
INDEX 00 07:22:65
FILE "04 Joy.wav" WAVE
INDEX 01 00:00:00
 
Лог проверки качества
AUDIOCHECKER v2.0 beta (build 457) - by Dester - opdester@freemail.hu
~~~~~~~~~~~~~~~~~~~~~~~~~~~~~~~~~~
-=== DO NOT EDIT THIS FILE! ===-
Path: ...\Sun Ra - 2000 - Janus - FLAC
1 -=- 01 Island in the Sun.flac -=- CDDA (100%)
2 -=- 02 The Invisible Shield _ Janus.flac -=- CDDA (100%)
3 -=- 03 Velvet.flac -=- CDDA (100%)
4 -=- 04 Joy.flac -=- CDDA (100%)
Summary 100,00% CDDA
40233812
 
Состав
Art Jenkins - vocals, percussion
Danny Davis - alto saxophone, percussion, alto clarinet
Ronnie Boykins - bass
John Gilmore - tenor saxophone, bells, percussion
Sun Ra - gong, clavinet, piano, organ, mini-moog
Tommy Hunter - reverb, percussion
Pat Patrick - bongos [prob.], percussion [prob.], baritone saxophone
Marshall Allen - piccolo flute, flute, alto saxophone
Robert Cummings - bass clarinet [prob.], percussion [prob.]
Danny Ray Thompson - neptunian libflecto (modified bassoon)
Clifford Jarvis - drums
James Jacson - log drum, flute
Bernard Pettaway - trombone [prob.]
Robert Northern - french horn
Any questions -> support@pro-jazz.com. По всем вопросам пишите -> support@pro-jazz.com
12:14
206
Нет комментариев. Ваш будет первым!