Вы используете незарегистрированную версию компонента "Вкладки"!

Поиск

(Free Jazz, Soul-Jazz) Alice Coltrane - A Monastic Trio - 1968, FLAC (image+.cue), lossless

(Free Jazz, Soul-Jazz) Alice Coltrane - A Monastic Trio - 1968, FLAC (image+.cue), lossless
Треклист:
Alice Coltrane - A Monastic Trio
Жанр: Free Jazz, Soul-Jazz
Год выпуска диска: 1968
Производитель диска: 1998, Impulse! IMPD 267
Аудио кодек: FLAC
Тип рипа: image+.cue
Битрейт аудио: lossless
Продолжительность: 57:14
Трэклист:
1 Lord, Help Me To Be 7:30
Saxophone [Tenor] - Pharoah Sanders
2 The Sun 4:01
Flute - Pharoah Sanders
Vocals - John Coltrane
3 Ohnedaruth 7:49
Clarinet [Bass] - Pharoah Sanders
4 Gospel Trane 6:44
5 I Want To See You 6:42
6 Lovely Sky Boat 6:51
7 Oceanic Boulevard 4:18
Vocals - John Coltrane
8 Atomic Peace 5:53
9 Altruvista 6:55
Bass - Jimmy Garrison
Drums - Ben Riley (tracks: 1 to 3) , Rashied Ali (tracks: 4 to 8)
Producer, Piano, Harp - Alice Coltrane
Engineer - Roy Musnug (tracks: 1 to 8) , Rudy Van Gelder (tracks: 9)
Other [Reissue Producer] - Michael Cuscuna
 
Отчёт EAC
Exact Audio Copy V0.99 prebeta 3 from 28. July 2007
Отчёт EAC об извлечении, выполненном 10. февраля 2009, 22:52
Alice Coltrane / A Monastic Trio (1998 Remaster)
Дисковод: HL-DT-STDVD-RAM GSA-H55N Adapter: 0 ID: 0
Режим чтения : Достоверность
Использование точного потока : Да
Отключение кэша аудио : Да
Использование указателей C2 : Нет
Коррекция смещения при чтении : 102
Способность читать области Lead-in и Lead-out : Нет
Заполнение пропущенных сэмплов тишиной : Да
Удаление блоков с тишиной в начале и конце : Нет
При вычислениях CRC использовались нулевые сэмплы : Нет
Интерфейс : Установленный внешний ASPI-интерфейс
Выходной формат : Пользовательский кодировщик
Выбранный битрейт : 768 kBit/s
Качество : Высокий
Добавление ID3-тэга : Нет
Утилита сжатия : C:\Program Files\Exact Audio Copy\FLAC\FLAC.EXE
Дополнительные параметры : -6 -V -T "ARTIST=%a" -T "TITLE=%t" -T "ALBUM=%g" -T "DATE=%y" -T "TRACKNUMBER=%n" -T "GENRE=%m" -T "COMMENT=%e" %s -o %d
TOC извлечённого CD
Трек | Старт | Длительность | Начальный сектор | Конечный сектор
---------------------------------------------------------------------
1 | 0:00.00 | 7:34.18 | 0 | 34067
2 | 7:34.18 | 4:04.67 | 34068 | 52434
3 | 11:39.10 | 7:53.00 | 52435 | 87909
4 | 19:32.10 | 6:48.05 | 87910 | 118514
5 | 26:20.15 | 6:46.05 | 118515 | 148969
6 | 33:06.20 | 6:54.70 | 148970 | 180089
7 | 40:01.15 | 4:21.58 | 180090 | 199722
8 | 44:22.73 | 5:56.37 | 199723 | 226459
9 | 50:19.35 | 6:55.38 | 226460 | 257622
Характеристики диапазона извлечения и сообщения об ошибках
Выбранный диапазон
Имя файла C:\Users\Миша\Documents\Alice Coltrane - A Monastic Trio\Alice Coltrane - A Monastic Trio (1998 Remaster).wav
Пиковый уровень 99.8 %
Качество диапазона 99.9 %
CRC копии 6F3C8903
Копирование... OK
Ошибок не произошло
AccurateRip: сводка
Трек 1 нет в базе данных
Трек 2 нет в базе данных
Трек 3 нет в базе данных
Трек 4 нет в базе данных
Трек 5 нет в базе данных
Трек 6 нет в базе данных
Трек 7 нет в базе данных
Трек 8 нет в базе данных
Трек 9 нет в базе данных
Ни одного трека нет в базе AccurateRip
Конец отчёта
Any questions -> support@pro-jazz.com. По всем вопросам пишите -> support@pro-jazz.com
17:46
260
Нет комментариев. Ваш будет первым!