Вы используете незарегистрированную версию компонента "Вкладки"!

Поиск

(Free Improvisation / Modern Creative) Barre Phillips / Bertram Turetzky / Vinny Golia - Trignition - 1999, FLAC (image+.cue), lossless

(Free Improvisation / Modern Creative) Barre Phillips / Bertram Turetzky / Vinny Golia - Trignition - 1999, FLAC (image+.cue), lossless
Треклист:
Barre Phillips / Bertram Turetzky / Vinny Golia - Trignition
Жанр: Free Improvisation / Modern Creative
Год выпуска диска: 1999
Производитель диска: USA (Nine Winds 221)
Аудио кодек: FLAC
Тип рипа: image+.cue
Битрейт аудио: lossless
Продолжительность: 1:15:26
Barre Phillips contrabass
Bertram Turetzky contrabass
Vinny Golia Eb, Bb bass and contrabass clarinets, soprano and baritone saxophones, suonas
1. The Incomplete Touching of the Ground
2. Spherics & Whistles
3. Dale of the Merry Years
4. Confirmation of Judgement
5. Inconabular
6. Bigman, Hugeman!
7. Saylaa
8. It Was Probably the Last One To Be Named
9. Anodyne

 
AMG Review
Get two of the finest bassists in the world together in a studio, throw in a fellow who needs to make a half-dozen trips to cart in all his horns, and one has the makings of a good session of improvised music, to be sure. How much one enjoys this outing will depend on whether one appreciates reed player Vinny Golia's approach to playing with bassists, which despite avant-garde trappings is the pretty traditional hornman's stance of playing over the bass. For free improvised music, for example, this could be contrasted with players such as Evan Parker or John Butcher, who design their playing to be heard on an equal footing with the bass, as if all the instruments were involved in creating one big sound. Some listeners may feel that Golia's activity, including some swinging phrases played with a nice touch on his various clarinets, takes away from the impact of bassists Barre Phillips and Bertram Turetzky. It also sometimes changes the focus of the music itself. While the bassists tend to play texturally with many bowed harmonics and knocking sounds, Golia chooses to play quite melodically, his use of sounds almost always tied in with an emotional climax. His work is expressive and heartfelt as always, but he tends to take over, grounding the music with grandly lyrical held notes or cluttering up the atmosphere with rapid runs packed with pitches. Like many jazz-influenced improvisers, he inhabits a netherworld in which the playing of an actual, interesting melody is shunned, while noodling around a scale or mode is not. When the players do convene on certain pitches, an ensemble sound is established, but this hardly represents the potential level of complexity one expects from such major players. The best track is "It Was Probably the Last One to Be Named," in which the delicious sound of the contrabass clarinet inspires much spirited bowing. ~ Eugene Chadbourne, AMG
 
EAC Report
Exact Audio Copy V0.99 prebeta 4 from 23. January 2008
EAC extraction logfile from 31. July 2009, 0:11
Barre Phillips / Bertram Turetzky / Vinny Golia / Trignition
Used drive : TSSTcorpCD/DVDW SH-S182M Adapter: 2 ID: 0
Read mode : Secure
Utilize accurate stream : Yes
Defeat audio cache : Yes
Make use of C2 pointers : No
Read offset correction : 6
Overread into Lead-In and Lead-Out : No
Fill up missing offset samples with silence : Yes
Delete leading and trailing silent blocks : No
Null samples used in CRC calculations : Yes
Used interface : Installed external ASPI interface
Used output format : User Defined Encoder
Selected bitrate : 1024 kBit/s
Quality : High
Add ID3 tag : No
Command line compressor : C:\Program Files\Exact Audio Copy\FLAC\FLAC.EXE
Additional command line options : -6 -V -T "ARTIST=%a" -T "TITLE=%t" -T "ALBUM=%g" -T "DATE=%y" -T "TRACKNUMBER=%n" -T "GENRE=%m" -T "COMMENT=%e" %s -o %d
TOC of the extracted CD
Track | Start | Length | Start sector | End sector
---------------------------------------------------------
1 | 0:00.00 | 9:05.40 | 0 | 40914
2 | 9:05.40 | 9:51.66 | 40915 | 85305
3 | 18:57.31 | 7:53.26 | 85306 | 120806
4 | 26:50.57 | 7:36.38 | 120807 | 155044
5 | 34:27.20 | 2:27.43 | 155045 | 166112
6 | 36:54.63 | 13:04.54 | 166113 | 224966
7 | 49:59.42 | 1:17.29 | 224967 | 230770
8 | 51:16.71 | 11:20.74 | 230771 | 281844
9 | 62:37.70 | 12:47.60 | 281845 | 339429
Range status and errors
Selected range
Filename C:\Documents and Settings\Igor\My Documents\My Music\eac\Phillips Turetzky Golia - Trignition.wav
Peak level 99.0 %
Range quality 99.9 %
Test CRC C9878FF2
Copy CRC C9878FF2
Copy OK
No errors occurred
AccurateRip summary
Track 1 not present in database
Track 2 not present in database
Track 3 not present in database
Track 4 not present in database
Track 5 not present in database
Track 6 not present in database
Track 7 not present in database
Track 8 not present in database
Track 9 not present in database
None of the tracks are present in the AccurateRip database
End of status report
Any questions -> support@pro-jazz.com. По всем вопросам пишите -> support@pro-jazz.com
17:45
186
Нет комментариев. Ваш будет первым!