Вы используете незарегистрированную версию компонента "Вкладки"!

Поиск

(Free Jazz) Sam Rivers trio with Don Pullen - Black Africa - 1976, FLAC (tracks+.cue) lossless

(Free Jazz) Sam Rivers trio with Don Pullen - Black Africa - 1976, FLAC (tracks+.cue) lossless
Треклист:
Sam Rivers - Black Africa - 1976
Жанр: Free Jazz
Страна исполнителя: USA
Дата записи: complete live in Umbria Jazz Festival, Villalago, Italy July 24, 1976
Год издания оригинала: 1976
Год переиздания: November 17, 2009
Страна - производитель диска: Europe
Издатель (лейбл): AtomicRecords
Номер по каталогу: 76813
Тип: Live, Reissue
Аудио кодек: FLAC (*.flac)
Тип рипа: (tracks + .cue)
Корректность рипа: EAC ripped, correct read offset, test and copy, accuratelly ripped
Битрейт аудио: lossless
Наличие сканов в содержимом раздачи: full scans, png, 300 dpi
Продолжительность: 67:58
Источник (релизер): коллекция Л Рендера, мой рип
Трэклист:
1. Announcement into BLACK AFRICA [Part 1, soprano section] 18:26
2 BLACK AFRICA [Part 2, piano & flute section] 19:43
3. BLACK AFRICA [Part 3, flute & tenor section featuring Don Pullen] 19:53
4.BLACK AFRICA [Encore] 9:55
All compositions by Sam Rivers
Состав:
SAM RIVERS, tenor sax, soprano sax, flute, piano & voice
DON PULLEN, piano (on 3 only)
JOE DALEY, tuba & euphonium
SIDNEY SMART, drums & percussion
Издания:
1977 - Vinyl LP, Horo, HDP 05-06 -
2009 - CD, Ais, 0649760
 
Несколько слов на английском
This edition presents, for the first time ever on CD, the complete long unavailable 1976 Villalago performance by the Sam Rivers Trio, featuring Don Pullen, as a guest soloist. One of the best exponents of free jazz, this set features Rivers playing tenor and soprano saxophones, flute and piano on an extended exploration of his "Black Africa"
Note: The recording engineers didn't capture the first notes of the Villalago performance. To avoid an abrupt start on our CD, we have edited, before the first notes recorded, the announcement from the concert performed in Perugia the following day.
 
Содержание индексной карты (.CUE):
REM GENRE Jazz
REM DATE 1976
REM DISCID 2F0FEE04
REM COMMENT "ExactAudioCopy v0.99pb4"
PERFORMER "Sam Rivers"
TITLE "Black Africa"
FILE "01 - Announcement into Black Africa (Part I, Soprano Section).wav" WAVE
TRACK 01 AUDIO
TITLE "Announcement into Black Africa (Part I, Soprano Section)"
PERFORMER "Sam Rivers"
INDEX 01 00:00:00
FILE "02 - Black Africa (Part II, Piano and Flute Section).wav" WAVE
TRACK 02 AUDIO
TITLE "Black Africa (Part II, Piano and Flute Section)"
PERFORMER "Sam Rivers"
INDEX 01 00:00:00
FILE "03 - Black Africa (Part III, Flute & Tenor Section featuring Don Pullen).wav" WAVE
TRACK 03 AUDIO
TITLE "Black Africa (Part III, Flute & Tenor Section featuring Don Pullen)"
PERFORMER "Sam Rivers"
INDEX 01 00:00:00
FILE "04 - Black Africa (Encore).wav" WAVE
TRACK 04 AUDIO
TITLE "Black Africa (Encore)"
PERFORMER "Sam Rivers"
INDEX 01 00:00:00
 
Лог создания рипа
Exact Audio Copy V0.99 prebeta 4 from 23. January 2008
EAC extraction logfile from 1. December 2010, 16:36
Sam Rivers / Black Africa
Used drive : HL-DT-STDVD-RAM GH22NP20 Adapter: 0 ID: 0
Read mode : Secure
Utilize accurate stream : Yes
Defeat audio cache : Yes
Make use of C2 pointers : No
Read offset correction : 102
Overread into Lead-In and Lead-Out : No
Fill up missing offset samples with silence : Yes
Delete leading and trailing silent blocks : No
Null samples used in CRC calculations : Yes
Used interface : Installed external ASPI interface
Gap handling : Appended to previous track
Used output format : User Defined Encoder
Selected bitrate : 320 kBit/s
Quality : High
Add ID3 tag : No
Command line compressor : C:\Program Files\Exact Audio Copy\Flac\flac.exe
Additional command line options : -V -8 -T "artist=%a" -T "title=%t" -T "album=%g" -T "date=%y" -T "tracknumber=%n" -T "genre=%m" %s
TOC of the extracted CD
Track | Start | Length | Start sector | End sector
---------------------------------------------------------
1 | 0:00.00 | 18:26.54 | 0 | 83003
2 | 18:26.54 | 19:43.44 | 83004 | 171772
3 | 38:10.23 | 19:53.05 | 171773 | 261252
4 | 58:03.28 | 9:55.31 | 261253 | 305908
Track 1
Filename D:\music\Musicgate's rips\Sam Rivers - Black Africa - 1976 (Atomic Records)\01 - Announcement into Black Africa (Part I, Soprano Section).wav
Pre-gap length 0:00:02.00
Peak level 90.6 %
Track quality 100.0 %
Test CRC 7F695DBF
Copy CRC 7F695DBF
Accurately ripped (confidence 1) [C479543D]
Copy OK
Track 2
Filename D:\music\Musicgate's rips\Sam Rivers - Black Africa - 1976 (Atomic Records)\02 - Black Africa (Part II, Piano and Flute Section).wav
Peak level 79.2 %
Track quality 100.0 %
Test CRC 429B7112
Copy CRC 429B7112
Accurately ripped (confidence 1) [0BA75E91]
Copy OK
Track 3
Filename D:\music\Musicgate's rips\Sam Rivers - Black Africa - 1976 (Atomic Records)\03 - Black Africa (Part III, Flute & Tenor Section featuring Don Pullen).wav
Peak level 71.6 %
Track quality 99.9 %
Test CRC 3D692925
Copy CRC 3D692925
Accurately ripped (confidence 1) [E14A5591]
Copy OK
Track 4
Filename D:\music\Musicgate's rips\Sam Rivers - Black Africa - 1976 (Atomic Records)\04 - Black Africa (Encore).wav
Peak level 84.5 %
Track quality 99.9 %
Test CRC A6269A47
Copy CRC A6269A47
Accurately ripped (confidence 1) [67B46EAD]
Copy OK
All tracks accurately ripped
No errors occurred
End of status report
 
Лог проверки качества
Я не сидирую все свои раздачи подолгу, только новые (до 3х первых сидов)
Если нет сидов или раздача находится в архиве, просите в ПМ, чтобы я вернулся - за старыми раздачами не слежу
приветствуется конвертация моих раздач в мп3 и выкладывание в соответствующем разделе
По всем вопросам пишите личное сообщение пользователю M0p94ok.
07:26
167
Нет комментариев. Ваш будет первым!