Вы используете незарегистрированную версию компонента "Вкладки"!

Поиск

(Free Jazz) ROVA - Saxophone Diplomacy (recorded live June 1983) - 1991, APE (image+.cue), lossless

Треклист:
ROVA - Saxophone Diplomacy
Жанр: Free Jazz
Год выпуска диска: 1991
Производитель диска: hat ART 6068
Аудио кодек: APE
Тип рипа: image+.cue
Битрейт аудио: lossless
Продолжительность: 60:04
Трэклист:
1. Flamingo Horizons 17:25
2. Sidelines 5:41
3. Paint Another Take of the Shootpop 19:57
4. Escape from Zero Village 5:20
5. The Throes 6:02
6. Strangeness 9:42
Доп. информация:
Bruce Ackley - Clarinet, Sax (Soprano)
Andrew Voigt - Flute, Sax (Alto), Sax (Soprano)
Larry Ochs - Sax (Soprano), Sax (Tenor)
Jon Raskin - Clarinet, Sax (Alto), Sax (Soprano), Baritone
1,3 recorded live June 1983 in Moscow, Russia
2,4 recorded live June 1983 in Riga, Latvia.
5,6 recorded live June 1983 in Craiova, Romania.
 
скрытый текст
Exact Audio Copy V0.99 prebeta 4 from 23. January 2008
EAC extraction logfile from 31. January 2009, 14:01
ROVA / Saxophone Diplomacy
Used drive : HL-DT-STRW/DVD GCC-4242N Adapter: 1 ID: 0
Read mode : Secure
Utilize accurate stream : Yes
Defeat audio cache : Yes
Make use of C2 pointers : Yes
Read offset correction : 102
Overread into Lead-In and Lead-Out : No
Fill up missing offset samples with silence : Yes
Delete leading and trailing silent blocks : No
Null samples used in CRC calculations : Yes
Used interface : Native Win32 interface for Win NT & 2000
Used output format : Internal WAV Routines
Sample format : 44.100 Hz; 16 Bit; Stereo
TOC of the extracted CD
Track | Start | Length | Start sector | End sector
---------------------------------------------------------
1 | 0:00.00 | 17:25.62 | 0 | 78436
2 | 17:25.62 | 5:41.00 | 78437 | 104011
3 | 23:06.62 | 19:57.50 | 104012 | 193836
4 | 43:04.37 | 5:20.00 | 193837 | 217836
5 | 48:24.37 | 6:02.25 | 217837 | 245011
6 | 54:26.62 | 9:42.13 | 245012 | 288674
Range status and errors
Selected range
Filename C:\_\EAC_Out\Out\ROVA - Saxophone Diplomacy\ROVA - Saxophone Diplomacy.wav
Peak level 100.0 %
Range quality 99.9 %
Copy CRC F7589F26
Copy OK
No errors occurred
AccurateRip summary
Track 1 not present in database
Track 2 not present in database
Track 3 not present in database
Track 4 not present in database
Track 5 not present in database
Track 6 not present in database
None of the tracks are present in the AccurateRip database
End of status report
Any questions -> support@pro-jazz.com. По всем вопросам пишите -> support@pro-jazz.com
10:42
191
Нет комментариев. Ваш будет первым!