Поиск

(Avant-Garde Jazz/Prog-Rock) The Keith Tippett Group - You Are Here... I Am There - 1969, APE (image+.cue), lossless

(Avant-Garde Jazz/Prog-Rock) The Keith Tippett Group - You Are Here... I Am There - 1969, APE (image+.cue), lossless
Треклист:
The Keith Tippett Group - You Are Here... I Am There
Жанр: Avant-Garde Jazz/Prog-Rock
Год выпуска диска: 2000
Производитель диска: Испания
Label: Disconforme
Аудио кодек: APE
Тип рипа: image+.cue
Битрейт аудио: lossless
Продолжительность: 46:29.880 (123033708 samples)
Источник lossless: Нонейм, автор barin99
Трэклист:
1. This Evening Was Like Last Year 9:05
2. I Wish There Was a Nowhere 14:02
3. Thank You for the Smile 2:03
4. Three Minutes From an Afternoon in July 4:11
5. View from Battery Point 2:00
6. Violence 4:00
7. Stately Dance for Miss Primm 6:51
8. This Evening Was Like Last Year [Short Version] 4:05
Музыканты:
Keith Tippett — Piano (King Crimson)
Elton Dean — Saxophone
Marc Charig — Horn
Nick Evans — Trombone
Giorgio Gomelsky — Guitar (Electric)
Jeff Clyne — Bass
Al Jackson, Jr. — Drums
...МакДоналда с трудом смогли заменить пианист Кит Типпетт и флейтист-саксофонист Мел Коллинз (Keith Tippett & Mel Collins)...
 
EAC log:
Exact Audio Copy V0.99 prebeta 4 from 23. January 2008
EAC extraction logfile from 15. April 2009, 18:41
The Keith Tippett Group / You Are Here... I Am There
Used drive : HL-DT-STRW/DVD GCC-4242N Adapter: 1 ID: 0
Read mode : Secure
Utilize accurate stream : Yes
Defeat audio cache : Yes
Make use of C2 pointers : No
Read offset correction : 102
Overread into Lead-In and Lead-Out : No
Fill up missing offset samples with silence : Yes
Delete leading and trailing silent blocks : No
Null samples used in CRC calculations : Yes
Used interface : Native Win32 interface for Win NT & 2000
Used output format : Internal WAV Routines
Sample format : 44.100 Hz; 16 Bit; Stereo
TOC of the extracted CD
Track | Start | Length | Start sector | End sector
---------------------------------------------------------
1 | 0:00.00 | 9:04.60 | 0 | 40859
2 | 9:04.60 | 14:08.37 | 40860 | 104496
3 | 23:13.22 | 2:03.08 | 104497 | 113729
4 | 25:16.30 | 4:11.43 | 113730 | 132597
5 | 29:27.73 | 2:00.35 | 132598 | 141632
6 | 31:28.33 | 4:03.53 | 141633 | 159910
7 | 35:32.11 | 6:51.57 | 159911 | 190792
8 | 42:23.68 | 4:05.73 | 190793 | 209240
Range status and errors
Selected range
Filename C:\_\EAC_Out\Out\The Keith Tippett Group - You Are Here... I Am There\The Keith Tippett Group - You Are Here... I Am There.wav
Peak level 85.0 %
Range quality 100.0 %
Copy CRC C439DBE7
Copy OK
No errors occurred
AccurateRip summary
Track 1 not present in database
Track 2 not present in database
Track 3 not present in database
Track 4 not present in database
Track 5 not present in database
Track 6 not present in database
Track 7 not present in database
Track 8 not present in database
None of the tracks are present in the AccurateRip database
End of status report
По всем вопросам пишите личное сообщение пользователю M0p94ok.
10:42
192
Нет комментариев. Ваш будет первым!