Вы используете незарегистрированную версию компонента "Вкладки"!

Поиск

(Free-Jazz) Roscoe Mitchell Sextet - Sound - 1967 {Delmark}, APE (image+.cue), lossless

Треклист:
Roscoe Mitchell Sextet - Sound
Жанр: Free-Jazz
Год выпуска диска: 1967
Производитель диска: US (Delmark)
Аудио кодек: APE
Тип рипа: image+.cue
Битрейт аудио: lossless
Продолжительность: 1:07:43
Трэклист:
01 - Ornette (alternate) (5:45)
02 - Sound 1 (26:37)
03 - The Little Suite (10:27)
04 - Ornette (5:30)
05 - Sound 2 (19:25)
Доп. информация: Roscoe Mitchell (recorder, clarinet, alto saxophone)
Lester Lashley (cello, trombone)
Lester Bowie (harmonica, trumpet, flugelhorn)
Kalaparusha Maurice McIntyre (tenor saxophone)
Malachi Favors (bass)
Alvin Fielder (drums, percussion)
 
EAC Log
EAC extraction logfile from 24. May 2006, 23:31 for CD
Roscoe Mitchell Sextet / Sound
Used drive : HL-DT-STDVD-ROM GDR8163B Adapter: 1 ID: 1
Read mode : Secure with NO C2, accurate stream, disable cache
Read offset correction : 102
Overread into Lead-In and Lead-Out : No
Used output format : E:\Mis documentos\Encoders\Monkey's Audio\MAC.exe (Monkey's Audio Lossless Encoder)
Normal Lossless Compression
Other options :
Fill up missing offset samples with silence : Yes
Delete leading and trailing silent blocks : No
Installed external ASPI interface
Range status and errors
Selected range
Filename F:\CDs\Roscoe Mitchell Sextet - Sound.wav
Peak level 98.2 %
Range quality 100.0 %
CRC 01D990ED
Copy OK
No errors occured
End of status report
 
.cue
REM DATE 1966
REM DISCID 390FDF05
REM COMMENT "ExactAudioCopy v0.95b3"
CATALOG 0000000000000
PERFORMER "Roscoe Mitchell Sextet"
TITLE "Sound"
FILE "Roscoe Mitchell Sextet - Sound.ape" WAVE
TRACK 01 AUDIO
TITLE "Ornette (alternate)"
PERFORMER "Roscoe Mitchell Sextet"
INDEX 01 00:00:00
TRACK 02 AUDIO
TITLE "Sound 1"
PERFORMER "Roscoe Mitchell Sextet"
INDEX 00 05:42:22
INDEX 01 05:44:67
TRACK 03 AUDIO
TITLE "The Little Suite"
PERFORMER "Roscoe Mitchell Sextet"
INDEX 00 32:17:60
INDEX 01 32:21:50
TRACK 04 AUDIO
TITLE "Ornette"
PERFORMER "Roscoe Mitchell Sextet"
INDEX 00 42:46:20
INDEX 01 42:48:57
TRACK 05 AUDIO
TITLE "Sound 2"
PERFORMER "Roscoe Mitchell Sextet"
INDEX 00 48:15:32
INDEX 01 48:18:35
В продолжение Делмарковской темы. Честно говоря, я немного удивился, когда не нашел этот альбом поиском.
Any questions -> support@pro-jazz.com. По всем вопросам пишите -> support@pro-jazz.com
17:47
185
Нет комментариев. Ваш будет первым!