Вы используете незарегистрированную версию компонента "Вкладки"!

Поиск

(Avant-Garde Jazz / Modern) Steve Lehman Octet - Travail, Transformation, and Flow - 2009, FLAC (tracks+.cue), lossless

(Avant-Garde Jazz / Modern) Steve Lehman Octet - Travail, Transformation, and Flow - 2009, FLAC (tracks+.cue), lossless
Треклист:
Steve Lehman Octet - Travail, Transformation, and Flow
Жанр: Avant-Garde Jazz / Modern
Год выпуска : 2009
Лейбл: Pi Recordings
Аудио кодек: FLAC
Тип рипа: tracks+.cue
Битрейт аудио: lossless
Продолжительность: 00:40:15
Рип: MRmarket - What CD


01. Echoes (4:27)
02. Rudreshm (4:50)
03. As Things Change (I remain the same) (3:50)
04. Dub (1:48)
05. Alloy (10:11)
06. Waves (5:37)
07. No Neighborhood Rough Enough (6:16)
08. Living In The World Today (Gza Transcription) (3:17)

 
EAC
Exact Audio Copy V0.99 prebeta 5 from 4. May 2009
EAC extraction logfile from 28. December 2009, 21:34
Steve Lehman / Travail, Transformation, and Flow
Used drive : HL-DT-STDVDRRW GSA-H30L Adapter: 1 ID: 0
Read mode : Secure
Utilize accurate stream : Yes
Defeat audio cache : Yes
Make use of C2 pointers : No
Read offset correction : 102
Overread into Lead-In and Lead-Out : Yes
Fill up missing offset samples with silence : Yes
Delete leading and trailing silent blocks : No
Null samples used in CRC calculations : Yes
Used interface : Installed external ASPI interface
Gap handling : Appended to previous track
Used output format : User Defined Encoder
Selected bitrate : 320 kBit/s
Quality : High
Add ID3 tag : No
Command line compressor : C:\Program Files\Exact Audio Copy\Flac\flac.exe
Additional command line options : -V -8 -T "artist=%a" -T "title=%t" -T "album=%g" -T "date=%y" -T "tracknumber=%n" -T "genre=%m" %s
TOC of the extracted CD
Track | Start | Length | Start sector | End sector
---------------------------------------------------------
1 | 0:00.00 | 4:27.16 | 0 | 20040
2 | 4:27.16 | 4:49.50 | 20041 | 41765
3 | 9:16.66 | 3:49.62 | 41766 | 59002
4 | 13:06.53 | 1:47.45 | 59003 | 67072
5 | 14:54.23 | 10:10.46 | 67073 | 112868
6 | 25:04.69 | 5:36.47 | 112869 | 138115
7 | 30:41.41 | 6:16.27 | 138116 | 166342
8 | 36:57.68 | 3:17.14 | 166343 | 181131
Track 1
Filename Z:\music\test\Steve Lehman - Travail, Transformation, and Flow - 2009\01. Echoes.wav
Pre-gap length 0:00:02.00
Peak level 94.4 %
Track quality 100.0 %
Test CRC EF294361
Copy CRC EF294361
Accurately ripped (confidence 2) [13BCBABC]
Copy OK
Track 2
Filename Z:\music\test\Steve Lehman - Travail, Transformation, and Flow - 2009\02. Rudreshm.wav
Pre-gap length 0:00:01.23
Peak level 94.4 %
Track quality 100.0 %
Test CRC 81CDBEE6
Copy CRC 81CDBEE6
Accurately ripped (confidence 2) [E4494363]
Copy OK
Track 3
Filename Z:\music\test\Steve Lehman - Travail, Transformation, and Flow - 2009\03. As Things Change (I remain the same).wav
Pre-gap length 0:00:02.00
Peak level 94.4 %
Track quality 100.0 %
Test CRC 19C3DC2F
Copy CRC 19C3DC2F
Accurately ripped (confidence 2) [C8F6D438]
Copy OK
Track 4
Filename Z:\music\test\Steve Lehman - Travail, Transformation, and Flow - 2009\04. Dub.wav
Pre-gap length 0:00:02.00
Peak level 94.4 %
Track quality 99.9 %
Test CRC FF65B7D2
Copy CRC FF65B7D2
Accurately ripped (confidence 2) [9BFDCD27]
Copy OK
Track 5
Filename Z:\music\test\Steve Lehman - Travail, Transformation, and Flow - 2009\05. Alloy.wav
Pre-gap length 0:00:02.00
Peak level 94.4 %
Track quality 100.0 %
Test CRC AF6C5215
Copy CRC AF6C5215
Accurately ripped (confidence 2) [916804ED]
Copy OK
Track 6
Filename Z:\music\test\Steve Lehman - Travail, Transformation, and Flow - 2009\06. Waves.wav
Pre-gap length 0:00:02.00
Peak level 94.4 %
Track quality 100.0 %
Test CRC 5779EE24
Copy CRC 5779EE24
Accurately ripped (confidence 2) [4DBA0E4F]
Copy OK
Track 7
Filename Z:\music\test\Steve Lehman - Travail, Transformation, and Flow - 2009\07. No Neighborhood Rough Enough.wav
Pre-gap length 0:00:00.20
Peak level 94.4 %
Track quality 100.0 %
Test CRC 1AF27EC8
Copy CRC 1AF27EC8
Accurately ripped (confidence 2) [39FB86CB]
Copy OK
Track 8
Filename Z:\music\test\Steve Lehman - Travail, Transformation, and Flow - 2009\08. Living In The World Today (Gza Transcription).wav
Pre-gap length 0:00:02.00
Peak level 94.4 %
Track quality 100.0 %
Test CRC CE3BFBDF
Copy CRC CE3BFBDF
Accurately ripped (confidence 2) [934F37F7]
Copy OK
All tracks accurately ripped
No errors occurred
End of status report
 
CUE
REM GENRE Jazz
REM DATE 2009
REM DISCID 7D096F08
REM COMMENT "ExactAudioCopy v0.99pb5"
FILE "01. Echoes.wav" WAVE
TRACK 01 AUDIO
INDEX 01 00:00:00
TRACK 02 AUDIO
INDEX 00 04:25:68
FILE "02. Rudreshm.wav" WAVE
INDEX 01 00:00:00
TRACK 03 AUDIO
INDEX 00 04:47:50
FILE "03. As Things Change (I remain the same).wav" WAVE
INDEX 01 00:00:00
TRACK 04 AUDIO
INDEX 00 03:47:62
FILE "04. Dub.wav" WAVE
INDEX 01 00:00:00
TRACK 05 AUDIO
INDEX 00 01:45:45
FILE "05. Alloy.wav" WAVE
INDEX 01 00:00:00
TRACK 06 AUDIO
INDEX 00 10:08:46
FILE "06. Waves.wav" WAVE
INDEX 01 00:00:00
TRACK 07 AUDIO
INDEX 00 05:36:27
FILE "07. No Neighborhood Rough Enough.wav" WAVE
INDEX 01 00:00:00
TRACK 08 AUDIO
INDEX 00 06:14:27
FILE "08. Living In The World Today (Gza Transcription).wav" WAVE
INDEX 01 00:00:00
 
Audiochecker
Started at: среда, 30. 12. 2009. - 13:15.39
8 files found
1 -===- C:\Downloads\Music\Джаз\Steve Lehman Octet - Travail, Transformation, and Flow - 2009\01. Echoes.flac
Extracted successfully
Conclusion: This track looks like CDDA with probability 100%
Tempfile successfully deleted.
2 -===- C:\Downloads\Music\Джаз\Steve Lehman Octet - Travail, Transformation, and Flow - 2009\02. Rudreshm.flac
Extracted successfully
Conclusion: This track looks like CDDA with probability 100%
Tempfile successfully deleted.
3 -===- C:\Downloads\Music\Джаз\Steve Lehman Octet - Travail, Transformation, and Flow - 2009\03. As Things Change (I remain the same).flac
Extracted successfully
Conclusion: This track looks like CDDA with probability 100%
Tempfile successfully deleted.
4 -===- C:\Downloads\Music\Джаз\Steve Lehman Octet - Travail, Transformation, and Flow - 2009\04. Dub.flac
Extracted successfully
Conclusion: This track looks like CDDA with probability 100%
Tempfile successfully deleted.
5 -===- C:\Downloads\Music\Джаз\Steve Lehman Octet - Travail, Transformation, and Flow - 2009\05. Alloy.flac
Extracted successfully
Conclusion: This track looks like CDDA with probability 100%
Tempfile successfully deleted.
6 -===- C:\Downloads\Music\Джаз\Steve Lehman Octet - Travail, Transformation, and Flow - 2009\06. Waves.flac
Extracted successfully
Conclusion: This track looks like CDDA with probability 100%
Tempfile successfully deleted.
7 -===- C:\Downloads\Music\Джаз\Steve Lehman Octet - Travail, Transformation, and Flow - 2009\07. No Neighborhood Rough Enough.flac
Extracted successfully
Conclusion: This track looks like CDDA with probability 100%
Tempfile successfully deleted.
8 -===- C:\Downloads\Music\Джаз\Steve Lehman Octet - Travail, Transformation, and Flow - 2009\08. Living In The World Today (Gza Transcription).flac
Extracted successfully
Conclusion: This track looks like CDDA with probability 99%
Tempfile successfully deleted.
Finished at: среда, 30. 12. 2009. - 13:23.21 (operation time: 0:07.42)

Mark Shim - tenor saxophone,
Drew Gress - bass,
Tyshawn Sorey - drums,
Jonathan Finlayson - trumpet,
Jose Davila - tuba,
Tim Albright - trombone
Chris Dingman - vibraphone.
Any questions -> support@pro-jazz.com. По всем вопросам пишите -> support@pro-jazz.com
17:48
150
Нет комментариев. Ваш будет первым!