Поиск

(Free Jazz) Rosco Mitchell-SPACE - 1981, APE (image + .cue), lossless

Треклист:
Rosco Mitchell-SPACE
Страна: Canada(2000 Mutable Music)
Жанр: Free Jazz
Год выпуска: 1981
Формат: APE (image + .cue)
Битрейт аудио: lossless
Продолжительность: 39:35/42:39
Трэклист:
CD 1. New music for woodwinds and voice(1981)
1 Marche 5:58
2 Textures for Trio 14:13
3 Prelude 7:18
4 Variation on Sketches from Bamboo, No. 1 and 2 11:40
CD 2.An interesting breakfast conversation(1984)
1 An Interesting Breakfast Conversation 3:27
2 Live at the Public Theatre, I 9:54
3 Svsa, Scene 1 2:17
4 Live at the Public Theatre, II 5:31
5 Shapes 9:09
6 Phonics 4:27
7 Journeys 7:16
Roscoe Mitchell-Soprano,Tenor & Bass Saxophones;Soprano Clarinet
Thomas Buckner-Extended Voice
Gerald Oshita-Straight Alto,Tenor,Baritone Saxophones,Contabass Sarrusaphone,Conn-o-sax
Доп. информация: Рип с фирмы,сканы в наличии.
 
скрытый текст
Exact Audio Copy V0.99 prebeta 3 from 28. July 2007
Отчёт EAC об извлечении, выполненном 27. марта 2008, 23:39
Rosco Mitchel / An interesting breakfast conversation
Дисковод: Optiarc DVD RW AD-7203A Adapter: 0 ID: 1
Режим чтения : Достоверность
Использование точного потока : Да
Отключение кэша аудио : Да
Использование указателей C2 : Нет
Коррекция смещения при чтении : 48
Способность читать области Lead-in и Lead-out : Нет
Заполнение пропущенных сэмплов тишиной : Да
Удаление блоков с тишиной в начале и конце : Нет
При вычислениях CRC использовались нулевые сэмплы : Да
Интерфейс : Установленный внешний ASPI-интерфейс
Выходной формат : Monkey's Audio Lossless Encoder v3.99 DLL
Формат сэмплов : High Lossless Compression
TOC извлечённого CD
Трек | Старт | Длительность | Начальный сектор | Конечный сектор
---------------------------------------------------------------------
1 | 0:00.00 | 3:33.55 | 0 | 16029
2 | 3:33.55 | 9:59.40 | 16030 | 60994
3 | 13:33.20 | 2:22.50 | 60995 | 71694
4 | 15:55.70 | 5:34.10 | 71695 | 96754
5 | 21:30.05 | 9:14.20 | 96755 | 138324
6 | 30:44.25 | 4:33.40 | 138325 | 158839
7 | 35:17.65 | 7:19.12 | 158840 | 191776
Характеристики диапазона извлечения и сообщения об ошибках
Выбранный диапазон
Имя файла C:\Documents and Settings\1\Рабочий стол\Rosco Mitchel - An interesting breakfast conversation.ape
Пиковый уровень 99.8 %
Качество диапазона 100.0 %
CRC теста ED72F5DE
CRC копии AB85F82B
Копирование... OK
Ошибок не произошло
Конец отчёта
 
скрытый текст
Exact Audio Copy V0.99 prebeta 3 from 28. July 2007
Отчёт EAC об извлечении, выполненном 27. марта 2008, 23:11
Rosco Mitchel / New music for woodwinds and voice
Дисковод: Optiarc DVD RW AD-7203A Adapter: 0 ID: 1
Режим чтения : Достоверность
Использование точного потока : Да
Отключение кэша аудио : Да
Использование указателей C2 : Нет
Коррекция смещения при чтении : 48
Способность читать области Lead-in и Lead-out : Нет
Заполнение пропущенных сэмплов тишиной : Да
Удаление блоков с тишиной в начале и конце : Нет
При вычислениях CRC использовались нулевые сэмплы : Да
Интерфейс : Установленный внешний ASPI-интерфейс
Выходной формат : Monkey's Audio Lossless Encoder v3.99 DLL
Формат сэмплов : High Lossless Compression
TOC извлечённого CD
Трек | Старт | Длительность | Начальный сектор | Конечный сектор
---------------------------------------------------------------------
1 | 0:00.00 | 6:04.40 | 0 | 27339
2 | 6:04.40 | 14:20.25 | 27340 | 91864
3 | 20:24.65 | 7:25.57 | 91865 | 125296
4 | 27:50.47 | 11:42.53 | 125297 | 177999
Характеристики диапазона извлечения и сообщения об ошибках
Выбранный диапазон
Имя файла C:\Documents and Settings\1\Рабочий стол\Rosco Mitchel - New music for woodwinds and voice.ape
Пиковый уровень 95.4 %
Качество диапазона 99.9 %
CRC теста A531A237
CRC копии A531A237
Копирование... OK
Ошибок не произошло
Конец отчёта
Rosco Mitchell играет еще тут http://rutracker.org/forum/viewtopic.php?t=752590
Приватный:
Нет (DHT включён)
Размер:
343.17 Мб (359,840,600 байт) » файлов: 11
Участники:
0 раздают, 0 качают (0 участников всего)
Внешние участники:
1 раздают, 0 качают (1 участников всего) [ Обновить ]
Есть вопросы - пишите личное сообщение пользователю M0p94ok.
00:16
52
Нет комментариев. Ваш будет первым!