Поиск

(Avant-Garde / Experimental) Food - Veggie - 2002, FLAC (image + .cue), lossless

(Avant-Garde / Experimental) Food - Veggie - 2002, FLAC (image + .cue), lossless
Треклист:
Food - Veggie
Страна: UK/Norway
Жанр: Jazz
Год выпуска: 2002
Формат: FLAC (image + .cue)
Битрейт аудио: lossless
Продолжительность: 41:26
Iain Ballamy saxes
Arve Henriksen trumpet
Mats Eilersten bass
Thomas Strønen drums and percussion
Tofu
Eat
Veg
Chickpea
Pie
Nofood
Mushroom
All tracks by Food except track 6 by Heige Sten.
 
Немного по-английски
"Food's work is always a fine balance of north European lyrical understatement, contemporary acoustic jazz and fierce abstraction. The tonal blend of Ballamy's wintry softness in this setting and Arve Henriksen's startlingly unbrasslike trumpet sound is one of the most striking aspects of a constantly refreshing band.
This is a more ambient-sounding set than the last album, a live collection that featured more free-jazzy dialogues for the horns, and which opened invitingly with Ballamy's haunting saxophone.
They haven't gone out of their way to charm doubters at the outset this time. The irresistibly racing electronic groove four tracks in, which rattles on under Henriksen's sinister hissing sounds, evaporating growls and Bitches Brew-like choral climaxes, could have been the snap-to-attention opening track.
Instead they elect to start with a long, abstract scraping and clattering of percussion and loosely slewing electronics, before the horns begin their more spacious reflections over a strange, garrulous background bustle that sounds like a flock of turkeys eating cornflakes....
Iain Ballamy is as subtly adventurous as ever ".
- John Fordham
 
EAC Report
Exact Audio Copy V0.99 prebeta 4 from 23. January 2008
EAC extraction logfile from 28. March 2008, 21:57
Food / Veggie
Used drive : MATSHITADVD-RAM UJ-840S Adapter: 1 ID: 0
Read mode : Secure
Utilize accurate stream : Yes
Defeat audio cache : Yes
Make use of C2 pointers : No
Read offset correction : 102
Overread into Lead-In and Lead-Out : No
Fill up missing offset samples with silence : Yes
Delete leading and trailing silent blocks : No
Null samples used in CRC calculations : No
Used interface : Installed external ASPI interface
Used output format : User Defined Encoder
Selected bitrate : 1024 kBit/s
Quality : High
Add ID3 tag : No
Command line compressor : C:\Program Files\Exact Audio Copy\FLAC\FLAC.EXE
Additional command line options : -6 -V -T "ARTIST=%a" -T "TITLE=%t" -T "ALBUM=%g" -T "DATE=%y" -T "TRACKNUMBER=%n" -T "GENRE=%m" -T "COMMENT=%e" %s -o %d
TOC of the extracted CD
Track | Start | Length | Start sector | End sector
---------------------------------------------------------
1 | 0:00.00 | 3:17.37 | 0 | 14811
2 | 3:17.37 | 6:04.08 | 14812 | 42119
3 | 9:21.45 | 3:20.30 | 42120 | 57149
4 | 12:42.00 | 10:18.33 | 57150 | 103532
5 | 23:00.33 | 4:44.46 | 103533 | 124878
6 | 27:45.04 | 4:01.54 | 124879 | 143007
7 | 31:46.58 | 9:38.71 | 143008 | 186428
Range status and errors
Selected range
Filename F:\u\Food\Food - Veggie (2002)\Food - Veggie.wav
Peak level 99.7 %
Range quality 100.0 %
Copy CRC E8722513
Copy OK
No errors occurred
AccurateRip summary
Track 1 not present in database
Track 2 not present in database
Track 3 not present in database
Track 4 not present in database
Track 5 not present in database
Track 6 not present in database
Track 7 not present in database
None of the tracks are present in the AccurateRip database
End of status report
Приватный:
Нет (DHT включён)
Размер:
171.34 Мб (179,660,931 байт) » файлов: 5
Участники:
0 раздают, 0 качают (0 участников всего)
Внешние участники:
2 раздают, 1 качают (3 участников всего) [ Обновить ]
Есть вопросы - пишите личное сообщение пользователю M0p94ok.
00:15
38
Нет комментариев. Ваш будет первым!