Поиск

(free jazz) Rob Wagner, Hamid Drake, Nobu Ozaki - Trio - 2007, APE (image+.cue), lossless

(free jazz) Rob Wagner, Hamid Drake, Nobu Ozaki - Trio - 2007, APE (image+.cue), lossless
Треклист:
Rob Wagner, Hamid Drake, Nobu Ozaki - Trio
Жанр: free jazz
Год выпуска диска: 2007
Производитель диска: USA
Тип рипа: image+.cue
Аудио кодек: APE
Битрейт аудио: lossless
Трэклист:
1. Desoparia (They handed out $12 billion cash in Iraq and couldn’t even give New Orleans drinking water)
2. Plutino
3. Where is Home?
4. Shock, Awe, Sham, Shame
5. Childhood Memory
6. La Madrugada
7. Freedumb (Aren’t you glad to vote in America?)
8. Penumbra
Доп. информация:
Rob Wagner: clarinet, tenor saxophone, soprano saxophone
Hamid Drake: trap drums, frame drum
Nobu Ozaki: bass
Label: Valid Records & R. Wagner
 
EAC log
Exact Audio Copy V0.99 prebeta 4 from 23. January 2008
EAC extraction logfile from 26. September 2008, 18:21
Rob Wagner, Hamid Drake, Nobu Ozaki / Trio
Used drive : HL-DT-STCD-RW GCE-8320B Adapter: 1 ID: 1
Read mode : Secure
Utilize accurate stream : Yes
Defeat audio cache : Yes
Make use of C2 pointers : No
Read offset correction : 12
Overread into Lead-In and Lead-Out : No
Fill up missing offset samples with silence : Yes
Delete leading and trailing silent blocks : No
Null samples used in CRC calculations : Yes
Used interface : Installed external ASPI interface
Used output format : Monkey's Audio Lossless Encoder v3.99 DLL
Sample format : Normal Lossless Compression
TOC of the extracted CD
Track | Start | Length | Start sector | End sector
---------------------------------------------------------
1 | 0:00.00 | 6:03.23 | 0 | 27247
2 | 6:03.23 | 6:43.17 | 27248 | 57489
3 | 12:46.40 | 10:54.18 | 57490 | 106557
4 | 23:40.58 | 7:42.12 | 106558 | 141219
5 | 31:22.70 | 7:10.48 | 141220 | 173517
6 | 38:33.43 | 7:00.17 | 173518 | 205034
7 | 45:33.60 | 8:20.05 | 205035 | 242539
8 | 53:53.65 | 9:38.18 | 242540 | 285907
Range status and errors
Selected range
Filename D:\Torrent\Rob Wagner, Hamid Drake, Nobu Ozaki - Trio (2007)\Rob Wagner, Hamid Drake, Nobu Ozaki - Trio.ape
Peak level 97.7 %
Range quality 99.9 %
Copy CRC 6F165E8C
Copy OK
No errors occurred
AccurateRip summary
Track 1 not present in database
Track 2 not present in database
Track 3 not present in database
Track 4 not present in database
Track 5 not present in database
Track 6 not present in database
Track 7 not present in database
Track 8 not present in database
None of the tracks are present in the AccurateRip database
End of status report
Приватный:
Нет (DHT включён)
Размер:
308.87 Мб (323,878,691 байт) » файлов: 3
Участники:
0 раздают, 0 качают (0 участников всего)
Внешние участники:
2 раздают, 1 качают (3 участников всего) [ Обновить ]
No seeders - write a personal message to user M0p94ok. Нет сидеров - пишите личное сообщение пользователю M0p94ok.
03:49
58
Нет комментариев. Ваш будет первым!