Поиск

(Avant-Garde Jazz, Modal Music, Post-Bop) John Coltrane Quartet - Crescent - 1964 (1987), WAVPack (image+.cue), lossless

(Avant-Garde Jazz, Modal Music, Post-Bop) John Coltrane Quartet - Crescent - 1964 (1987), WAVPack (image+.cue), lossless
Треклист:
John Coltrane Quartet - Crescent
Жанр: Avant-Garde Jazz, Modal Music, Post-Bop
Страна-производитель диска: Германия
Год издания диска: 1987
Издатель (лейбл): Impulse!
Номер по каталогу: 254 608-2
Страна: США
Аудиокодек: WAVPack
Тип рипа: image+.cue
Битрейт аудио: lossless
Продолжительность: 40:33
Источник (релизер): frafra64 (hqshare)
Наличие сканов в содержимом раздачи: нет
Треклист:
01. Crescent (Coltrane) - 8:45
02. Wise One (Coltrane) - 9:03
03. Bessie's Blues (Coltrane) - 3:35
04. Lonnie's Lament (Coltrane) - 11:47
05. The Drum Thing (Coltrane) - 7:23
Состав:
John Coltrane - tenor saxophone
McCoy Tyner - piano
Jimmy Garrison - bass
Elvin Jones - drums
Recorded at Van Gelder Studio, Englewood Cliffs, NJ on April 27 and June 1, 1964.
 
Лог создания рипа
EAC extraction logfile from 11. August 2008, 20:27 for CD
John Coltrane Quartet / Crescent
Used drive : LITE-ON LTR-52246S Adapter: 1 ID: 0
Read mode : Secure with NO C2, accurate stream, disable cache
Read offset correction : 6
Overread into Lead-In and Lead-Out : No
Used output format : Internal WAV Routines
44.100 Hz; 16 Bit; Stereo
Other options :
Fill up missing offset samples with silence : Yes
Delete leading and trailing silent blocks : No
Installed external ASPI interface
Range status and errors
Selected range
Filename J:\MMT\John Coltrane Quartet - Crescent.wav
Peak level 100.0 %
Range quality 100.0 %
CRC C57D0429
Copy OK
No errors occured
End of status report
 
Содержание индексной карты (.CUE)
REM GENRE Jazz
REM DATE 1964
REM DISCID 3D098105
REM COMMENT "ExactAudioCopy v0.95b4"
PERFORMER "John Coltrane Quartet"
TITLE "Crescent"
FILE "John Coltrane Quartet - Crescent.wav" WAVE
TRACK 01 AUDIO
TITLE "Crescent"
PERFORMER "John Coltrane Quartet"
INDEX 00 00:00:00
INDEX 01 00:00:33
TRACK 02 AUDIO
TITLE "Wise One"
PERFORMER "John Coltrane Quartet"
INDEX 00 08:43:61
INDEX 01 08:45:43
TRACK 03 AUDIO
TITLE "Bessie's Blues"
PERFORMER "John Coltrane Quartet"
INDEX 00 17:46:58
INDEX 01 17:48:60
TRACK 04 AUDIO
TITLE "Lonnie's Lament"
PERFORMER "John Coltrane Quartet"
INDEX 00 21:21:60
INDEX 01 21:23:38
TRACK 05 AUDIO
TITLE "The Drum Thing"
PERFORMER "John Coltrane Quartet"
INDEX 00 33:09:04
INDEX 01 33:10:55
 
Отчет CUETools
[CUETools log; Date: 04.06.2013 2:37:49; Version: 2.1.4]
Pregap length 00:00:33.
[CTDB TOCID: W7U.ODRzQcF5KwPjSeN3a80u_7c-] found.
Track | CTDB Status
1 | (1/1) Accurately ripped
2 | (1/1) Accurately ripped
3 | (1/1) Accurately ripped
4 | (1/1) Accurately ripped
5 | (1/1) Accurately ripped
[AccurateRip ID: 00085b58-0026d8dc-3d098105] found.
Track [ CRC | V2 ] Status
01 [e4eab100|4520417a] (2+0/2) Accurately ripped
02 [c81932f2|f9c03e16] (2+0/2) Accurately ripped
03 [29efaf64|6fbf4463] (2+0/2) Accurately ripped
04 [750b37a7|de0dcd31] (2+0/2) Accurately ripped
05 [5785b15f|5fb0b151] (2+0/2) Accurately ripped
Track Peak [ CRC32 ] [W/O NULL] [ LOG ]
-- 100,0 [E284AF63] [C57D0429] W/O NULL
01 76,8 [DA76A34B] [B974C0FE]
02 84,1 [FBBF559C] [3B3E8312]
03 69,2 [B6D19196] [23F7BDC7]
04 89,0 [8CEB199C] [9B9F7508]
05 100,0 [01850B2C] [142BA455]
 
Review by Scott Yanow
One of only two studio albums cut by the John Coltrane Quartet during 1964, Crescent is most notable for including five Coltrane compositions including the title cut, "Lonnie's Lament," and the swinging "Bessie's Blues." The music is excellent although not as fiery as the Quartet's live performances of the period.
Приватный:
Нет (DHT включён)
Размер:
219.23 Мб (229,875,205 байт) » файлов: 4
Участники:
0 раздают, 0 качают (0 участников всего)
Внешние участники:
3 раздают, 1 качают (4 участников всего) [ Обновить ]
No seeders - write a personal message to user M0p94ok. Нет сидеров - пишите личное сообщение пользователю M0p94ok.
03:49
83
Нет комментариев. Ваш будет первым!