Вы используете незарегистрированную версию компонента "Вкладки"!

Поиск

(Free Jazz) Rashied Ali - Le Roy Jenkins Duo - Swift Are The Winds Of Life - 1999, FLAC (tracks+.cue) lossless

Треклист:
Rashied Ali - Le Roy Jenkins Duo - Swift Are The Winds Of Life
Жанр: Free Jazz
Страна-производитель диска: USA
Год издания диска: 1999
Издатель (лейбл): Knit Classics
Номер по каталогу: KCR-3026
Страна: USA
Аудио кодек: FLAC (*.flac)
Тип рипа: tracks+.cue
Битрейт аудио: lossless
Продолжительность: 30:24
Источник (релизер): собственный рип с оригинального диска
Наличие сканов в содержимом раздачи: да
Треклист:
01. The Past
02. It's For You
03. The Stomp
04. Swift Are The Winds Of Life
 
Лог создания рипа
Exact Audio Copy V0.99 prebeta 5 from 4. May 2009
EAC extraction logfile from 16. October 2010, 16:10
Rashied Ali+Le Roy Jenkins Duo / Swift Are The Winds Of Life
Used drive : TSSTcorpCDDVDW SH-S222A Adapter: 1 ID: 0
Read mode : Secure
Utilize accurate stream : Yes
Defeat audio cache : Yes
Make use of C2 pointers : No
Read offset correction : 6
Overread into Lead-In and Lead-Out : No
Fill up missing offset samples with silence : Yes
Delete leading and trailing silent blocks : No
Null samples used in CRC calculations : Yes
Used interface : Native Win32 interface for Win NT & 2000
Gap handling : Appended to previous track
Used output format : User Defined Encoder
Selected bitrate : 768 kBit/s
Quality : High
Add ID3 tag : No
Command line compressor : C:\tool\Audio\Exact Audio Copy\FLAC\FLAC.EXE
Additional command line options : -V -8 -T "ARTIST=%a" -T "TITLE=%t" -T "ALBUM=%g" -T "TRACKNUMBER=%n" -T "GENRE=%m" %s
TOC of the extracted CD
Track | Start | Length | Start sector | End sector
---------------------------------------------------------
1 | 0:00.00 | 7:26.71 | 0 | 33520
2 | 7:26.71 | 7:40.45 | 33521 | 68065
3 | 15:07.41 | 5:00.16 | 68066 | 90581
4 | 20:07.57 | 10:18.23 | 90582 | 136954
Track 1
Filename C:\! RUTRACKER\ru up\Rashied Ali+Le Roy Jenkins Duo - Swift Are The Winds Of Life\01 - The Past.wav
Pre-gap length 0:00:02.00
Peak level 99.3 %
Track quality 99.9 %
Test CRC CE16DA82
Copy CRC CE16DA82
Track not present in AccurateRip database
Copy OK
Track 2
Filename C:\! RUTRACKER\ru up\Rashied Ali+Le Roy Jenkins Duo - Swift Are The Winds Of Life\02 - It's For You.wav
Pre-gap length 0:00:02.00
Peak level 92.0 %
Track quality 99.9 %
Test CRC 38DAF7BC
Copy CRC 38DAF7BC
Track not present in AccurateRip database
Copy OK
Track 3
Filename C:\! RUTRACKER\ru up\Rashied Ali+Le Roy Jenkins Duo - Swift Are The Winds Of Life\03 - The Stomp.wav
Pre-gap length 0:00:04.00
Peak level 96.4 %
Track quality 99.9 %
Test CRC 579D200A
Copy CRC 579D200A
Track not present in AccurateRip database
Copy OK
Track 4
Filename C:\! RUTRACKER\ru up\Rashied Ali+Le Roy Jenkins Duo - Swift Are The Winds Of Life\04 - Swift Are The Winds Of Life.wav
Pre-gap length 0:00:01.00
Peak level 99.3 %
Track quality 99.9 %
Test CRC 8891E3FE
Copy CRC 8891E3FE
Track not present in AccurateRip database
Copy OK
None of the tracks are present in the AccurateRip database
No errors occurred
End of status report
 
Содержание индексной карты (.CUE)
REM GENRE "Free Jazz"
REM DATE 1975
REM DISCID 30072204
REM COMMENT "ExactAudioCopy v0.99pb5"
PERFORMER "Rashied Ali+Le Roy Jenkins Duo"
TITLE "Swift Are The Winds Of Life"
FILE "01 - The Past.wav" WAVE
TRACK 01 AUDIO
TITLE "The Past"
PERFORMER "Rashied Ali+Le Roy Jenkins Duo"
INDEX 01 00:00:00
TRACK 02 AUDIO
TITLE "It's For You"
PERFORMER "Rashied Ali+Le Roy Jenkins Duo"
INDEX 00 07:24:71
FILE "02 - It's For You.wav" WAVE
INDEX 01 00:00:00
TRACK 03 AUDIO
TITLE "The Stomp"
PERFORMER "Rashied Ali+Le Roy Jenkins Duo"
INDEX 00 07:36:45
FILE "03 - The Stomp.wav" WAVE
INDEX 01 00:00:00
TRACK 04 AUDIO
TITLE "Swift Are The Winds Of Life"
PERFORMER "Rashied Ali+Le Roy Jenkins Duo"
INDEX 00 04:59:16
FILE "04 - Swift Are The Winds Of Life.wav" WAVE
INDEX 01 00:00:00
Доп. информация:
Recorded: 9.18.1975 at Studio 77, 77 Greene Street, New York City.
Recording and Mixing Engineer: Rashied Ali
Remastering: Rob McCabe + Sascha von Oertzen.The first piece of this series (from bnepal) can be found here: http://rutracker.org/forum/viewtopic.php?t=3080522
 
Об исполнителе (группе)
This is one of my favorites of the series. Coming back to it after many years, thanks to his more recent releases on CRI and Omnitone, the blues roots of his work, which before just seemed to me good "free improv." Ali, too, is at his best, skittering all over the kit in a very busy yet subtle way. Ali recalls, "It just happened. Le was working with the Revolutionary Ensemble and I was working with my band, and we never played together, and so we decided to get together. We came into the club when it was closed, I turned on the tape recorder and we just started playing. We put it down on tape not even thinking that it was gonna turn out the way that it turned out, and that was the first and the last time we played. It was great thing; it was in the winter time. For the pictures we went up to Central Park where it was freezing cold and Valerie Wilmer took the pictures for us. It was just a whim."
 
Об альбоме (сборнике)
Originally issued on the small Survival label and re-released by Knit Classics in 2000, Swift Are the Winds of Life represents one of the absolute finest examples of Jenkins' violin playing outside of his Revolutionary Ensemble and arguably one of Rashied Ali's greatest recordings aside from Interstellar Space, his legendary duo session with John Coltrane. A violin/drums duo may strike some as strange and unwieldy, but these musicians pull it off so well one never even considers any "lack" of depth or richness. Jenkins, more than any other violinist working in the jazz avant-garde, retained the cry of the blues even in his most abstract playing. In the title track, his plaintive, keening attack, from the delicate theme through its complex elaborations, is searing and supremely moving. Ali, in the tradition of Max Roach and Ed Blackwell, draws out the deeply musical tones in his drums, sometimes providing accompaniment for Jenkins, more often nestling in as equal partner. The compositions, all by Jenkins, range from torrid and in-your-face ("The Stomp") to bluesy to abstract, none of them especially difficult for the new listener. A very fine (if all too short) recording, one of the best to emerge from the New York City "loft jazz" scene of the '70s.
 
Состав
Le Roy Jenkins - violin
Rashied Ali - drums
Rashied Ali, born Robert Patterson (July 1, 1933 in Philadelphia, PA – August 12, 2009 in New York, NY)
Any questions -> support@pro-jazz.com. По всем вопросам пишите -> support@pro-jazz.com
04:09
172
Нет комментариев. Ваш будет первым!