Вы используете незарегистрированную версию компонента "Вкладки"!

Поиск

(Free Jazz) John Lindberg - Trilogy Of Works For Eleven Instrumentals - 1985, APE (image+.cue) lossless

Треклист:
John Lindberg / Trilogy Of Works For Eleven Instrumentals
Жанр: Free Jazz
Страна-производитель диска: Italy
Год издания диска: 1985
Издатель (лейбл): Black Saint
Номер по каталогу: BSR 0082
Аудио кодек: APE (*.ape)
Тип рипа: image+.cue
Битрейт аудио: lossless
Продолжительность: 40:57
Источник (релизер): Собственный рип с оригинального фирменного диска
Наличие сканов в содержимом раздачи: нет
Треклист:
Holler — Ray Anderson with Brent Bagwell, Anthony Braxton, Pablo Calogero, Vincent Chancey, Marty Ehrlich, Allan Jaffe, John Lindberg, Michael Mossman, J.d. Parran, Hugh Ragin, Eric Watson 12:35
M To M — Ray Anderson with Anthony Braxton, Pablo Calogero, Vincent Chancey, Marty Ehrlich, Allan Jaffe, John Lindberg, Michael Mossman, J.d. Parran, Hugh Ragin, Eric Watson 8:14
Dresden Moods — Ray Anderson with Anthony Braxton, Pablo Calogero, Vincent Chancey, Marty Ehrlich, Allan Jaffe, John Lindberg, Michael Mossman, J.d. Parran, Hugh Ragin, Eric Watson 20:09
 
Лог создания рипа
Exact Audio Copy V0.99 prebeta 5 from 4. May 2009
EAC extraction logfile from 16. October 2010, 16:18
john lindberg / trilogy of works for eleven instrumentalists
Used drive : Optiarc DVD RW AD-5200S Adapter: 2 ID: 1
Read mode : Secure
Utilize accurate stream : Yes
Defeat audio cache : Yes
Make use of C2 pointers : No
Read offset correction : 48
Overread into Lead-In and Lead-Out : No
Fill up missing offset samples with silence : Yes
Delete leading and trailing silent blocks : No
Null samples used in CRC calculations : Yes
Used interface : Native Win32 interface for Win NT & 2000
Used output format : Internal WAV Routines
Sample format : 44.100 Hz; 16 Bit; Stereo
Use compression offset : 0
TOC of the extracted CD
Track | Start | Length | Start sector | End sector
---------------------------------------------------------
1 | 0:00.00 | 12:34.52 | 0 | 56601
2 | 12:34.52 | 8:14.28 | 56602 | 93679
3 | 20:49.05 | 20:09.25 | 93680 | 184379
Range status and errors
Selected range
Filename F:\FOS\MY_MUSIC\john lindberg - trilogy of works for eleven instrumentalists\john lindberg - trilogy of works for eleven instrumentalists.wav
Peak level 99.9 %
Range quality 100.0 %
Test CRC BA3126EB
Copy CRC BA3126EB
Copy OK
No errors occurred
AccurateRip summary
Track 1 not present in database
Track 2 not present in database
Track 3 not present in database
None of the tracks are present in the AccurateRip database
End of status report
 
Содержание индексной карты (.CUE)
REM GENRE Jazz
REM DATE 1985
REM DISCID 1D099A03
REM COMMENT "ExactAudioCopy v0.99pb5"
PERFORMER "john lindberg"
TITLE "trilogy of works for eleven instrumentalists"
FILE "john lindberg - trilogy of works for eleven instrumentalists.wav" WAVE
TRACK 01 AUDIO
TITLE "holler"
PERFORMER "john lindberg"
INDEX 01 00:00:00
TRACK 02 AUDIO
TITLE "m to M"
PERFORMER "john lindberg"
INDEX 01 12:34:52
TRACK 03 AUDIO
TITLE "dresden moods"
PERFORMER "john lindberg"
INDEX 01 20:49:05
 
Об альбоме (сборнике)
Recorded September 8 and 9, 1984, at Vanguard Studios, New York. Mastered at Polygram, Tribiano - Milano
 
Состав
Alto Saxophone, Flute, Piccolo - Marty Ehrlich
Baritone Saxophone - Pablo Calogero
Bass, Composer - John Lindberg
Conductor - Anthony Braxton
Drums, Bells, Xylophone - Thurman Baker
Electric Gutar - Alan Jaffe
Engineer - David Baker
French Horn - Vincent Chancey
Piano - Eric Watson
Producer - Giovanni Bonandrini
Tenor Saxophone, Clarinet - J.D. Parran
Trombone - Ray Anderson
Trumpet - Hugh Ragin
Trumpet, Piccolo Trumpet - Mike Mossman
По всем вопросам пишите личное сообщение пользователю M0p94ok.
04:08
197
Нет комментариев. Ваш будет первым!