Вы используете незарегистрированную версию компонента "Вкладки"!

Поиск

(Free Jazz) Ramon Lopez Flowers Trio (with Sophia Domancich and Joelle Leandre) - Flowers Of Peace (2004) - 2005, FLAC (image+.cue), lossless

Треклист:
Ramon Lopez Flowers Trio — Flowers Of Peace (2004)
Жанр: Free Jazz
Год издания диска: 2005
Издатель (лейбл): Leo Records
Номер по каталогу: CD LR 438
Аудиокодек: FLAC (*.flac)
Тип рипа: image+.cue
Битрейт аудио: lossless
Продолжительность: 48:03
Риппер: basa005
Наличие сканов в содержимом раздачи: да
Треклист:
01. Bouton D'or (7:14)
02. Pissenlit (4:58)
03. Japanish Flower (7:22)
04. Aparajita (9:51)
05. Tres Nopales (9:07)
06. Chevrefeuille (9:32)
Personnel:
Ramon Lopez - perc
Sophia Domancich - p
Joëlle Léandre - b
Recorded at Radio France "A l'improviste - France Musiques", Paris, May 23, 2004.
 
 
Лог создания рипа
Exact Audio Copy V1.0 beta 2 from 29. April 2011
EAC extraction logfile from 27. July 2011, 14:54
Ramón Lopez Flowers Trio with Sophia Domancich & Joëlle Leandre / Flowers of Peace
Used drive : TSSTcorpCDDVDW SE-S204N Adapter: 2 ID: 0
Read mode : Secure
Utilize accurate stream : Yes
Defeat audio cache : Yes
Make use of C2 pointers : No
Read offset correction : 6
Overread into Lead-In and Lead-Out : No
Fill up missing offset samples with silence : Yes
Delete leading and trailing silent blocks : No
Null samples used in CRC calculations : No
Used interface : Native Win32 interface for Win NT & 2000
Used output format : Internal WAV Routines
Sample format : 44.100 Hz; 16 Bit; Stereo
TOC of the extracted CD
Track | Start | Length | Start sector | End sector
---------------------------------------------------------
1 | 0:00.00 | 7:13.54 | 0 | 32528
2 | 7:13.54 | 4:57.55 | 32529 | 54858
3 | 12:11.34 | 7:22.00 | 54859 | 88008
4 | 19:33.34 | 9:51.15 | 88009 | 132348
5 | 29:24.49 | 9:06.50 | 132349 | 173348
6 | 38:31.24 | 9:32.11 | 173349 | 216259
Range status and errors
Selected range
Filename C:\avaxhome\Ramón Lopez Flowers Trio with Sophia Domancich & Joëlle Leandre - Flowers of Peace.wav
Peak level 97.9 %
Extraction speed 6.9 X
Range quality 100.0 %
Copy CRC A2DCE41D
Copy OK
No errors occurred
AccurateRip summary
Track 1 accurately ripped (confidence 1) [BBC29064] (AR v1)
Track 2 accurately ripped (confidence 1) [28FDAB8B] (AR v1)
Track 3 accurately ripped (confidence 1) [5162A3FB] (AR v1)
Track 4 accurately ripped (confidence 1) [2D4B6530] (AR v1)
Track 5 accurately ripped (confidence 1) [F85F6A7E] (AR v1)
Track 6 accurately ripped (confidence 1) [C24B463B] (AR v1)
All tracks accurately ripped
End of status report
==== Log checksum 761BB7BACCB567297AF50B2E821E774B057B3D73D7F7A47879E8888AACDAA134 ====
 
Содержание индексной карты (.CUE)
REM GENRE Jazz
REM DATE 2004
REM DISCID 460B4306
REM COMMENT "ExactAudioCopy v1.0b2"
PERFORMER "Ramon Lopez Flowers Trio"
TITLE "Flowers Of Peace"
FILE "Ramon Lopez - Flowers Of Peace.flac" WAVE
TRACK 01 AUDIO
TITLE "Bouton D'or"
PERFORMER "Ramon Lopez Flowers Trio"
INDEX 01 00:00:00
TRACK 02 AUDIO
TITLE "Pissenlit"
PERFORMER "Ramon Lopez Flowers Trio"
INDEX 00 07:13:47
INDEX 01 07:13:54
TRACK 03 AUDIO
TITLE "Japanish Flower"
PERFORMER "Ramon Lopez Flowers Trio"
INDEX 01 12:11:34
TRACK 04 AUDIO
TITLE "Aparajita"
PERFORMER "Ramon Lopez Flowers Trio"
INDEX 01 19:33:34
TRACK 05 AUDIO
TITLE "Tres Nopales"
PERFORMER "Ramon Lopez Flowers Trio"
INDEX 01 29:24:49
TRACK 06 AUDIO
TITLE "Chevrefeuille"
PERFORMER "Ramon Lopez Flowers Trio"
INDEX 00 38:31:23
INDEX 01 38:31:24
 
Об альбоме (сборнике)
This is the fifth CD by the drummer Ramon Lopez on Leo Records who recruited for his new trio two of the most famous ladies of new jazz in France, the pianist Sophia Domancich and the bassist Joelle Leandre. The concert was recorded live at Radio France in front of the appreciative and knowledgable audience which greatly enjoyed spontaneously emerging melodies, drive and virtuosity of the musicians.
Any questions -> support@pro-jazz.com. По всем вопросам пишите -> support@pro-jazz.com
15:20
138
Нет комментариев. Ваш будет первым!