Вы используете незарегистрированную версию компонента "Вкладки"!

Поиск

(Free Improvisation) Paul Rutherford - Neuph - 2005 (1978-80), FLAC (tracks+.cue), lossless

(Free Improvisation) Paul Rutherford - Neuph - 2005 (1978-80), FLAC (tracks+.cue), lossless
Треклист:
Paul Rutherford / Neuph
Compositions For Euphonium And Trombone

Жанр: Free Improvisation
Страна-производитель диска: Великобритания
Год издания диска: 2005 (1978-80)
Издатель (лейбл): Emanem
Номер по каталогу: 4118
Страна: Великобритания
Аудиокодек: FLAC (*.flac)
Тип рипа: tracks+.cue
Битрейт аудио: lossless
Продолжительность: 1:10:09
Источник (релизер): вот.сиди (beatledennis)
Наличие сканов в содержимом раздачи: нет
Треклист:
1 - ROMAN TICK for one trombone - 6:03
2 - YEP 321 for two euphoniums - 8:30
3 - REALIGN 4 for four trombones - 9:00
4 - THREE LEVELS for three trombones (one double speed) - 3:46
5 - PAUNCH AND JUDIES for one double speed trombone and dog - 1:22
6 - CHEFOR for one euphonium - 7:57
7 - PHASE 2/2 for two trombones and two euphoniums - 8:06
8 - NEUPH for one trombone and one euphonium - 7:22
9 - PISA EAR for one trombone - 17:24
1 analogue concert recording Roma - 1980 April 14
2 - 8 analogue recording Mid Wales Sound Studios by Alan Green - 1978 January 30/31
9 analogue concert recording Pisa - 1980 June 26
2 - 8 originally issued in 1978 as SFA LP 092
1, 9 previously unissued
 
Лог создания рипа
X Lossless Decoder version 20110703 (135.1)
XLD extraction logfile from 2011-07-27 19:47:20 +0300
Paul Rutherford / "Neuph" Compositions For Euphonium And Trombone
Used drive : MATSHITA DVD-R UJ-898 (revision HC10)
Ripper mode : CDParanoia III 10.2
Disable audio cache : OK for the drive with a cache less than 2750KiB
Make use of C2 pointers : NO
Read offset correction : 102
Max retry count : 100
Gap status : Analyzed, Appended
TOC of the extracted CD
Track | Start | Length | Start sector | End sector
---------------------------------------------------------
1 | 00:00:00 | 06:09:17 | 0 | 27691
2 | 06:09:17 | 08:34:16 | 27692 | 66257
3 | 14:43:33 | 09:04:54 | 66258 | 107111
4 | 23:48:12 | 03:49:64 | 107112 | 124350
5 | 27:38:01 | 01:27:35 | 124351 | 130910
6 | 29:05:36 | 08:01:13 | 130911 | 166998
7 | 37:06:49 | 08:10:06 | 166999 | 203754
8 | 45:16:55 | 07:28:36 | 203755 | 237390
9 | 52:45:16 | 17:23:68 | 237391 | 315683
AccurateRip Summary
Disc not found in AccurateRip DB.
All Tracks
Album gain : -5.73 dB
Peak : 0.988983
Statistics
Read error : 0
Skipped (treated as error) : 0
Edge jitter error (maybe fixed) : 0
Atom jitter error (maybe fixed) : 0
Drift error (maybe fixed) : 0
Dropped bytes error (maybe fixed) : 0
Duplicated bytes error (maybe fixed) : 0
Track 01
Filename : /Volumes/Think Jazz/Paul Rutherford - 2005 – "Neuph" Compositions For Euphonium And Trombone/01 - Roman Tick.flac
Pre-gap length : 00:02:00
Track gain : -5.29 dB
Peak : 0.988953
CRC32 hash (test run) : CB313DC3
CRC32 hash : CB313DC3
CRC32 hash (skip zero) : 725BB62C
AccurateRip signature : 3039A1E8
->Track not present in AccurateRip database.
Statistics
Read error : 0
Skipped (treated as error) : 0
Edge jitter error (maybe fixed) : 0
Atom jitter error (maybe fixed) : 0
Drift error (maybe fixed) : 0
Dropped bytes error (maybe fixed) : 0
Duplicated bytes error (maybe fixed) : 0
Inconsistency in error sectors : 0
Track 02
Filename : /Volumes/Think Jazz/Paul Rutherford - 2005 – "Neuph" Compositions For Euphonium And Trombone/02 - Yep 321.flac
Pre-gap length : 00:06:00
Track gain : -5.81 dB
Peak : 0.892456
CRC32 hash (test run) : B08EDF9D
CRC32 hash : B08EDF9D
CRC32 hash (skip zero) : 3C4EFABF
AccurateRip signature : 7189E7F0
->Track not present in AccurateRip database.
Statistics
Read error : 0
Skipped (treated as error) : 0
Edge jitter error (maybe fixed) : 0
Atom jitter error (maybe fixed) : 0
Drift error (maybe fixed) : 0
Dropped bytes error (maybe fixed) : 0
Duplicated bytes error (maybe fixed) : 0
Inconsistency in error sectors : 0
Track 03
Filename : /Volumes/Think Jazz/Paul Rutherford - 2005 – "Neuph" Compositions For Euphonium And Trombone/03 - Realign 4.flac
Pre-gap length : 00:04:00
Track gain : -3.84 dB
Peak : 0.988922
CRC32 hash (test run) : 3296B497
CRC32 hash : 3296B497
CRC32 hash (skip zero) : 1A2AD272
AccurateRip signature : C8760B13
->Track not present in AccurateRip database.
Statistics
Read error : 0
Skipped (treated as error) : 0
Edge jitter error (maybe fixed) : 0
Atom jitter error (maybe fixed) : 0
Drift error (maybe fixed) : 0
Dropped bytes error (maybe fixed) : 0
Duplicated bytes error (maybe fixed) : 0
Inconsistency in error sectors : 0
Track 04
Filename : /Volumes/Think Jazz/Paul Rutherford - 2005 – "Neuph" Compositions For Euphonium And Trombone/04 - Three Levels.flac
Pre-gap length : 00:04:00
Track gain : -3.96 dB
Peak : 0.967529
CRC32 hash (test run) : 5EADFB7B
CRC32 hash : 5EADFB7B
CRC32 hash (skip zero) : 6FD81CF4
AccurateRip signature : B41CC17C
->Track not present in AccurateRip database.
Statistics
Read error : 0
Skipped (treated as error) : 0
Edge jitter error (maybe fixed) : 0
Atom jitter error (maybe fixed) : 0
Drift error (maybe fixed) : 0
Dropped bytes error (maybe fixed) : 0
Duplicated bytes error (maybe fixed) : 0
Inconsistency in error sectors : 0
Track 05
Filename : /Volumes/Think Jazz/Paul Rutherford - 2005 – "Neuph" Compositions For Euphonium And Trombone/05 - Paunch and Judies.flac
Pre-gap length : 00:04:00
Track gain : -5.05 dB
Peak : 0.988953
CRC32 hash (test run) : F5FDF579
CRC32 hash : F5FDF579
CRC32 hash (skip zero) : 2A331D0A
AccurateRip signature : 1336ABE5
->Track not present in AccurateRip database.
Statistics
Read error : 0
Skipped (treated as error) : 0
Edge jitter error (maybe fixed) : 0
Atom jitter error (maybe fixed) : 0
Drift error (maybe fixed) : 0
Dropped bytes error (maybe fixed) : 0
Duplicated bytes error (maybe fixed) : 0
Inconsistency in error sectors : 0
Track 06
Filename : /Volumes/Think Jazz/Paul Rutherford - 2005 – "Neuph" Compositions For Euphonium And Trombone/06 - Chefor.flac
Pre-gap length : 00:05:00
Track gain : -7.73 dB
Peak : 0.988953
CRC32 hash (test run) : 331EFF8E
CRC32 hash : 331EFF8E
CRC32 hash (skip zero) : 93952EA0
AccurateRip signature : C275C888
->Track not present in AccurateRip database.
Statistics
Read error : 0
Skipped (treated as error) : 0
Edge jitter error (maybe fixed) : 0
Atom jitter error (maybe fixed) : 0
Drift error (maybe fixed) : 0
Dropped bytes error (maybe fixed) : 0
Duplicated bytes error (maybe fixed) : 0
Inconsistency in error sectors : 0
Track 07
Filename : /Volumes/Think Jazz/Paul Rutherford - 2005 – "Neuph" Compositions For Euphonium And Trombone/07 - Phase 2-2.flac
Pre-gap length : 00:04:00
Track gain : -6.64 dB
Peak : 0.988983
CRC32 hash (test run) : 5F7F157E
CRC32 hash : 5F7F157E
CRC32 hash (skip zero) : 9A9D2894
AccurateRip signature : 0AD21F8E
->Track not present in AccurateRip database.
Statistics
Read error : 0
Skipped (treated as error) : 0
Edge jitter error (maybe fixed) : 0
Atom jitter error (maybe fixed) : 0
Drift error (maybe fixed) : 0
Dropped bytes error (maybe fixed) : 0
Duplicated bytes error (maybe fixed) : 0
Inconsistency in error sectors : 0
Track 08
Filename : /Volumes/Think Jazz/Paul Rutherford - 2005 – "Neuph" Compositions For Euphonium And Trombone/08 - Neuph.flac
Pre-gap length : 00:04:00
Track gain : -5.95 dB
Peak : 0.937775
CRC32 hash (test run) : F7BCA48A
CRC32 hash : F7BCA48A
CRC32 hash (skip zero) : 44BF4222
AccurateRip signature : 1D37F4DB
->Track not present in AccurateRip database.
Statistics
Read error : 0
Skipped (treated as error) : 0
Edge jitter error (maybe fixed) : 0
Atom jitter error (maybe fixed) : 0
Drift error (maybe fixed) : 0
Dropped bytes error (maybe fixed) : 0
Duplicated bytes error (maybe fixed) : 0
Inconsistency in error sectors : 0
Track 09
Filename : /Volumes/Think Jazz/Paul Rutherford - 2005 – "Neuph" Compositions For Euphonium And Trombone/09 - Pisa Ear.flac
Pre-gap length : 00:06:00
Track gain : -3.09 dB
Peak : 0.971680
CRC32 hash (test run) : 626A8104
CRC32 hash : 626A8104
CRC32 hash (skip zero) : 92501800
AccurateRip signature : 3C1DA80E
->Track not present in AccurateRip database.
Statistics
Read error : 0
Skipped (treated as error) : 0
Edge jitter error (maybe fixed) : 0
Atom jitter error (maybe fixed) : 0
Drift error (maybe fixed) : 0
Dropped bytes error (maybe fixed) : 0
Duplicated bytes error (maybe fixed) : 0
Inconsistency in error sectors : 0
No errors occurred
End of status report
 
Содержание индексной карты (.CUE)
TITLE ""Neuph" Compositions For Euphonium And Trombone"
PERFORMER "Paul Rutherford"
REM GENRE "Jazz"
REM DISCID 7B107109
FILE "01 - Roman Tick.wav" WAVE
TRACK 01 AUDIO
TITLE "Roman Tick"
INDEX 01 00:00:00
TRACK 02 AUDIO
TITLE "Yep 321"
INDEX 00 06:03:17
FILE "02 - Yep 321.wav" WAVE
INDEX 01 00:00:00
TRACK 03 AUDIO
TITLE "Realign 4"
INDEX 00 08:30:16
FILE "03 - Realign 4.wav" WAVE
INDEX 01 00:00:00
TRACK 04 AUDIO
TITLE "Three Levels"
INDEX 00 09:00:54
FILE "04 - Three Levels.wav" WAVE
INDEX 01 00:00:00
TRACK 05 AUDIO
TITLE "Paunch and Judies"
INDEX 00 03:45:64
FILE "05 - Paunch and Judies.wav" WAVE
INDEX 01 00:00:00
TRACK 06 AUDIO
TITLE "Chefor"
INDEX 00 01:22:35
FILE "06 - Chefor.wav" WAVE
INDEX 01 00:00:00
TRACK 07 AUDIO
TITLE "Phase 2-2"
INDEX 00 07:57:13
FILE "07 - Phase 2-2.wav" WAVE
INDEX 01 00:00:00
TRACK 08 AUDIO
TITLE "Neuph"
INDEX 00 08:06:06
FILE "08 - Neuph.wav" WAVE
INDEX 01 00:00:00
TRACK 09 AUDIO
TITLE "Pisa Ear"
INDEX 00 07:22:36
FILE "09 - Pisa Ear.wav" WAVE
INDEX 01 00:00:00
 
Лог проверки качества
AUDIOCHECKER v2.0 beta (build 457) - by Dester - opdester@freemail.hu
~~~~~~~~~~~~~~~~~~~~~~~~~~~~~~~~~~
-=== DO NOT EDIT THIS FILE! ===-
Path: ...\Paul Rutherford - 2005 – _Neuph_ Compositions For Euphonium And Trombone
1 -=- 01 - Roman Tick.flac -=- CDDA (100%)
2 -=- 02 - Yep 321.flac -=- MPEG (92%)
3 -=- 03 - Realign 4.flac -=- CDDA (43%)
4 -=- 04 - Three Levels.flac -=- CDDA (43%)
5 -=- 05 - Paunch and Judies.flac -=- MPEG (100%)
6 -=- 06 - Chefor.flac -=- CDDA (49%)
7 -=- 07 - Phase 2-2.flac -=- CDDA (43%)
8 -=- 08 - Neuph.flac -=- CDDA (43%)
9 -=- 09 - Pisa Ear.flac -=- CDDA (100%)
Summary 47,67% CDDA
1225796
 
Скриншот спектра частот
 
Состав
PAUL RUTHERFORD trombone & euphonium
All parts performed by Paul Rutherford (except for that of the dog)
Any questions -> support@pro-jazz.com. По всем вопросам пишите -> support@pro-jazz.com
15:21
162
Нет комментариев. Ваш будет первым!