Вы используете незарегистрированную версию компонента "Вкладки"!

Поиск

(free jazz, post-bop) Trio 3 + Geri Allen - Celebrating Mary Lou Williams (2011), FLAC (tracks+.cue), lossless

(free jazz, post-bop) Trio 3 + Geri Allen - Celebrating Mary Lou Williams (2011), FLAC (tracks+.cue), lossless
Треклист:


Trio 3 + Geri Allen - Celebrating Mary Lou Williams (2011)

Жанр: free jazz, post-bop
Год выпуска: 2011
Издатель (лейбл):intact
Формат: FLAC (tracks+.cue)
Битрейт аудио: lossless
Продолжительность 1`07`18
Источник: what.cd, suikodenz
Geri Allen (piano)
Oliver Lake (alto sax, flute)
Reggie Workman (bass)
Andrew Cyrille (drums)

tracks

1. Introduction By Gianni Valenti, Birdland
2. Blues For Peter
3. Ghost Of Love
4. New Musical Express
5. Intermission
6. What's Your Story, Morning Glory
7. Libra
8. Roll 'em


 
.log
Exact Audio Copy V1.0 beta 3 from 29. August 2011
EAC extraction logfile from 19. June 2012, 21:27
Trio 3 / Celebrating Mary Lou Williams
Used drive : hp DVD A DH16ABLH Adapter: 0 ID: 1
Read mode : Secure
Utilize accurate stream : Yes
Defeat audio cache : Yes
Make use of C2 pointers : No
Read offset correction : 6
Overread into Lead-In and Lead-Out : No
Fill up missing offset samples with silence : Yes
Delete leading and trailing silent blocks : No
Null samples used in CRC calculations : Yes
Used interface : Native Win32 interface for Win NT & 2000
Gap handling : Appended to previous track
Used output format : User Defined Encoder
Selected bitrate : 1024 kBit/s
Quality : High
Add ID3 tag : Yes
Command line compressor : C:\Program Files (x86)\Exact Audio Copy\Flac\flac.exe
Additional command line options : -8 -V -T "ARTIST=%artist%" -T "TITLE=%title%" -T "ALBUM=%albumtitle%" -T "DATE=%year%" -T "TRACKNUMBER=%tracknr%" -T "GENRE=%genre%" -T "PERFORMER=%albuminterpret%" -T "COMPOSER=%composer%" %haslyrics%--tag-from-file=LYRICS="%lyricsfile%"%haslyrics% -T "ALBUMARTIST=%albumartist%" -T "DISCNUMBER=%cdnumber%" -T "TOTALDISCS=%totalcds%" -T "TOTALTRACKS=%numtracks%" -T "COMMENT=%comment%" %source% -o %dest%
TOC of the extracted CD
Track | Start | Length | Start sector | End sector
---------------------------------------------------------
1 | 0:00.00 | 0:30.40 | 0 | 2289
2 | 0:30.40 | 9:56.54 | 2290 | 47043
3 | 10:27.19 | 10:25.19 | 47044 | 93937
4 | 20:52.38 | 13:40.32 | 93938 | 155469
5 | 34:32.70 | 8:41.35 | 155470 | 194579
6 | 43:14.30 | 8:23.41 | 194580 | 232345
7 | 51:37.71 | 2:53.63 | 232346 | 245383
8 | 54:31.59 | 12:45.63 | 245384 | 302821
Track 1
Filename C:\Eac\Eac-Rips\trio3\01 - Introduction By Gianni Valenti, Birdland.wav
Pre-gap length 0:00:02.00
Peak level 97.7 %
Extraction speed 0.8 X
Track quality 99.6 %
Test CRC 0346B782
Copy CRC 0346B782
Accurately ripped (confidence 1) [C4A7D454] (AR v2)
Copy OK
Track 2
Filename C:\Eac\Eac-Rips\trio3\02 - Blues For Peter.wav
Peak level 90.4 %
Extraction speed 4.0 X
Track quality 100.0 %
Test CRC 6C42FCDD
Copy CRC 6C42FCDD
Accurately ripped (confidence 1) [5C37D5FD] (AR v2)
Copy OK
Track 3
Filename C:\Eac\Eac-Rips\trio3\03 - Ghost Of Love.wav
Peak level 98.8 %
Extraction speed 4.9 X
Track quality 100.0 %
Test CRC 0D76A7A2
Copy CRC 0D76A7A2
Accurately ripped (confidence 1) [B650E73A] (AR v2)
Copy OK
Track 4
Filename C:\Eac\Eac-Rips\trio3\04 - New Musical Express.wav
Peak level 97.7 %
Extraction speed 5.8 X
Track quality 100.0 %
Test CRC 95787B46
Copy CRC 95787B46
Accurately ripped (confidence 1) [6237693E] (AR v2)
Copy OK
Track 5
Filename C:\Eac\Eac-Rips\trio3\05 - Intermission.wav
Pre-gap length 0:00:01.54
Peak level 97.7 %
Extraction speed 6.3 X
Track quality 100.0 %
Test CRC 59602299
Copy CRC 59602299
Accurately ripped (confidence 1) [852C7870] (AR v2)
Copy OK
Track 6
Filename C:\Eac\Eac-Rips\trio3\06 - What's Your Story, Morning Glory.wav
Peak level 50.7 %
Extraction speed 6.7 X
Track quality 100.0 %
Test CRC 09415C32
Copy CRC 09415C32
Accurately ripped (confidence 1) [41B26FE4] (AR v2)
Copy OK
Track 7
Filename C:\Eac\Eac-Rips\trio3\07 - Libra.wav
Peak level 79.8 %
Extraction speed 6.1 X
Track quality 100.0 %
Test CRC 39AA7B2A
Copy CRC 39AA7B2A
Accurately ripped (confidence 1) [2BEAB027] (AR v2)
Copy OK
Track 8
Filename C:\Eac\Eac-Rips\trio3\08 - Roll 'em.wav
Peak level 97.7 %
Extraction speed 7.5 X
Track quality 100.0 %
Test CRC 59E19B66
Copy CRC 59E19B66
Accurately ripped (confidence 1) [6B454C66] (AR v2)
Copy OK
All tracks accurately ripped
No errors occurred
End of status report
==== Log checksum 32EF15B4441B42CA9E56448E13CFC075E83DEC1124CAFE37141AF949BBA5BC36 ====
 
.cue
REM GENRE Jazz
REM DATE 2011
REM DISCID 6B0FC508
REM COMMENT "ExactAudioCopy v1.0b3"
PERFORMER "Trio 3 + Geri Allen"
TITLE "Celebrating Mary Lou Williams"
FILE "01 - Introduction By Gianni Valenti, Birdland.wav" WAVE
TRACK 01 AUDIO
TITLE "Introduction By Gianni Valenti, Birdland"
PERFORMER "Trio 3 + Geri Allen"
ISRC CH2701101356
INDEX 01 00:00:00
FILE "02 - Blues For Peter.wav" WAVE
TRACK 02 AUDIO
TITLE "Blues For Peter"
PERFORMER "Trio 3 + Geri Allen"
ISRC CH2701101357
INDEX 01 00:00:00
FILE "03 - Ghost Of Love.wav" WAVE
TRACK 03 AUDIO
TITLE "Ghost Of Love"
PERFORMER "Trio 3 + Geri Allen"
ISRC CH2701101358
INDEX 01 00:00:00
FILE "04 - New Musical Express.wav" WAVE
TRACK 04 AUDIO
TITLE "New Musical Express"
PERFORMER "Trio 3 + Geri Allen"
ISRC CH2701101359
INDEX 01 00:00:00
TRACK 05 AUDIO
TITLE "Intermission"
PERFORMER "Trio 3 + Geri Allen"
ISRC CH2701101360
INDEX 00 13:38:66
FILE "05 - Intermission.wav" WAVE
INDEX 01 00:00:00
FILE "06 - What's Your Story, Morning Glory.wav" WAVE
TRACK 06 AUDIO
TITLE "What's Your Story, Morning Glory"
PERFORMER "Trio 3 + Geri Allen"
ISRC CH2701101363
INDEX 01 00:00:00
FILE "07 - Libra.wav" WAVE
TRACK 07 AUDIO
TITLE "Libra"
PERFORMER "Trio 3 + Geri Allen"
ISRC CH2701101361
INDEX 01 00:00:00
FILE "08 - Roll 'em.wav" WAVE
TRACK 08 AUDIO
TITLE "Roll 'em"
PERFORMER "Trio 3 + Geri Allen"
ISRC CH2701101362
INDEX 01 00:00:00

другие релизы
Any questions -> support@pro-jazz.com. По всем вопросам пишите -> support@pro-jazz.com
09:27
301
Нет комментариев. Ваш будет первым!