Вы используете незарегистрированную версию компонента "Вкладки"!

Поиск

(Free Jazz) Ivo Perelman Trio & Rory Stuart - Revelation - 1996, FLAC (tracks+.cue), lossless

(Free Jazz) Ivo Perelman Trio & Rory Stuart - Revelation - 1996, FLAC (tracks+.cue), lossless
Треклист:
Ivo Perelman Trio & Rory Stuart / Revelation
Жанр: Free Jazz
Страна-производитель диска: USA
Год издания: 1996
Издатель (лейбл): CIMP
Номер по каталогу: CIMP #134
Аудиокодек: FLAC (*.flac)
Тип рипа: tracks+.cue
Битрейт аудио: lossless
Продолжительность: 1:09:08
Источник (релизер): CD
Наличие сканов в содержимом раздачи: да
Треклист:
01. Waiting for Plugs (10:00)
02. Drips (7:36)
03. October Rains (6:22)
04. Auld Lang Syne (7:01)
05. Auld Lang Syne Blues (5:48)
06. Pellican Rose (4:42)
07. Summer Ballad (6:37)
08. Bobaba Dubaa (5:23)
09. In A Sentimental Mood (12:39)
10. Ivocation (3:35)
 
Лог создания рипа
Exact Audio Copy V1.0 beta 2 from 29. April 2011
EAC extraction logfile from 17. February 2013, 0:48
Ivo Perelman Trio with Rory Stuart / Revelation
Used drive : Optiarc DVD RW AD-5280S Adapter: 1 ID: 1
Read mode : Secure
Utilize accurate stream : Yes
Defeat audio cache : Yes
Make use of C2 pointers : No
Read offset correction : 48
Overread into Lead-In and Lead-Out : No
Fill up missing offset samples with silence : Yes
Delete leading and trailing silent blocks : No
Null samples used in CRC calculations : Yes
Used interface : Native Win32 interface for Win NT & 2000
Gap handling : Appended to previous track
Used output format : User Defined Encoder
Selected bitrate : 128 kBit/s
Quality : High
Add ID3 tag : No
Command line compressor : C:\Program Files\FLAC\flac.exe
Additional command line options : -V -8 -T "Genre=%genre%" -T "Artist=%artist%" -T "Title=%title%" -T "Album=%albumtitle%" -T "Date=%year%" -T "Tracknumber=%tracknr%" -T "Comment=%comment%" %source%
TOC of the extracted CD
Track | Start | Length | Start sector | End sector
---------------------------------------------------------
1 | 0:00.00 | 9:55.59 | 0 | 44683
2 | 9:55.59 | 7:35.59 | 44684 | 78867
3 | 17:31.43 | 6:21.25 | 78868 | 107467
4 | 23:52.68 | 7:01.20 | 107468 | 139062
5 | 30:54.13 | 5:47.62 | 139063 | 165149
6 | 36:42.00 | 4:41.65 | 165150 | 186289
7 | 41:23.65 | 6:36.48 | 186290 | 216037
8 | 48:00.38 | 5:22.61 | 216038 | 240248
9 | 53:23.24 | 12:38.61 | 240249 | 297159
10 | 66:02.10 | 3:35.02 | 297160 | 313286
Track 1
Filename C:\Ivo Perelman Trio with Rory Stuart (1996) - Revelation\01 - Waiting For Plugs.wav
Pre-gap length 0:00:02.00
Peak level 54.5 %
Extraction speed 3.1 X
Track quality 100.0 %
Test CRC F46E5C20
Copy CRC F46E5C20
Track not present in AccurateRip database
Copy OK
Track 2
Filename C:\Ivo Perelman Trio with Rory Stuart (1996) - Revelation\02 - Drips.wav
Pre-gap length 0:00:03.15
Peak level 46.1 %
Extraction speed 3.5 X
Track quality 100.0 %
Test CRC 4A2731FE
Copy CRC 4A2731FE
Track not present in AccurateRip database
Copy OK
Track 3
Filename C:\Ivo Perelman Trio with Rory Stuart (1996) - Revelation\03 - October Rains.wav
Pre-gap length 0:00:03.15
Peak level 61.5 %
Extraction speed 3.9 X
Track quality 100.0 %
Test CRC DA7C952B
Copy CRC DA7C952B
Track not present in AccurateRip database
Copy OK
Track 4
Filename C:\Ivo Perelman Trio with Rory Stuart (1996) - Revelation\04 - Auld Lang Syne.wav
Pre-gap length 0:00:03.15
Peak level 75.4 %
Extraction speed 3.9 X
Track quality 99.9 %
Test CRC 085324D5
Copy CRC 085324D5
Track not present in AccurateRip database
Copy OK
Track 5
Filename C:\Ivo Perelman Trio with Rory Stuart (1996) - Revelation\05 - Auld Lang Syne Blues.wav
Pre-gap length 0:00:03.15
Peak level 100.0 %
Extraction speed 4.4 X
Track quality 100.0 %
Test CRC 0BCBEC99
Copy CRC 0BCBEC99
Track not present in AccurateRip database
Copy OK
Track 6
Filename C:\Ivo Perelman Trio with Rory Stuart (1996) - Revelation\06 - Pelican Pose.wav
Pre-gap length 0:00:03.15
Peak level 26.6 %
Extraction speed 4.1 X
Track quality 99.9 %
Test CRC 6DACE473
Copy CRC 6DACE473
Track not present in AccurateRip database
Copy OK
Track 7
Filename C:\Ivo Perelman Trio with Rory Stuart (1996) - Revelation\07 - Summer Ballad.wav
Pre-gap length 0:00:03.15
Peak level 36.0 %
Extraction speed 4.9 X
Track quality 100.0 %
Test CRC 1683FD12
Copy CRC 1683FD12
Track not present in AccurateRip database
Copy OK
Track 8
Filename C:\Ivo Perelman Trio with Rory Stuart (1996) - Revelation\08 - Bobaba Dubaa.wav
Pre-gap length 0:00:03.15
Peak level 62.4 %
Extraction speed 5.1 X
Track quality 100.0 %
Test CRC 4C960B94
Copy CRC 4C960B94
Track not present in AccurateRip database
Copy OK
Track 9
Filename C:\Ivo Perelman Trio with Rory Stuart (1996) - Revelation\09 - In A Sentimental Mood.wav
Pre-gap length 0:00:03.15
Peak level 55.7 %
Extraction speed 5.7 X
Track quality 100.0 %
Test CRC E43FF870
Copy CRC E43FF870
Track not present in AccurateRip database
Copy OK
Track 10
Filename C:\Ivo Perelman Trio with Rory Stuart (1996) - Revelation\10 - Ivocation.wav
Pre-gap length 0:00:03.15
Peak level 100.0 %
Extraction speed 5.3 X
Track quality 100.0 %
Test CRC 26274DE1
Copy CRC 26274DE1
Track not present in AccurateRip database
Copy OK
None of the tracks are present in the AccurateRip database
No errors occurred
End of status report
==== Log checksum 994E309E85DA2A12FFF6EE458B996640465E69A761B07B1DAAC0B6BFE85278C1 ====
 
Содержание индексной карты (.CUE)
REM GENRE Jazz
REM DATE 1996
REM DISCID 8F10510A
REM COMMENT "ExactAudioCopy v1.0b2"
PERFORMER "Ivo Perelman Trio with Rory Stuart"
TITLE "Revelation"
FILE "01 - Waiting For Plugs.wav" WAVE
TRACK 01 AUDIO
TITLE "Waiting For Plugs"
PERFORMER "Ivo Perelman Trio with Rory Stuart"
FLAGS DCP
INDEX 01 00:00:00
TRACK 02 AUDIO
TITLE "Drips"
PERFORMER "Ivo Perelman Trio with Rory Stuart"
FLAGS DCP
INDEX 00 09:52:44
FILE "02 - Drips.wav" WAVE
INDEX 01 00:00:00
TRACK 03 AUDIO
TITLE "October Rains"
PERFORMER "Ivo Perelman Trio with Rory Stuart"
FLAGS DCP
INDEX 00 07:32:44
FILE "03 - October Rains.wav" WAVE
INDEX 01 00:00:00
TRACK 04 AUDIO
TITLE "Auld Lang Syne"
PERFORMER "Ivo Perelman Trio with Rory Stuart"
FLAGS DCP
INDEX 00 06:18:10
FILE "04 - Auld Lang Syne.wav" WAVE
INDEX 01 00:00:00
TRACK 05 AUDIO
TITLE "Auld Lang Syne Blues"
PERFORMER "Ivo Perelman Trio with Rory Stuart"
FLAGS DCP
INDEX 00 06:58:05
FILE "05 - Auld Lang Syne Blues.wav" WAVE
INDEX 01 00:00:00
TRACK 06 AUDIO
TITLE "Pelican Pose"
PERFORMER "Ivo Perelman Trio with Rory Stuart"
FLAGS DCP
INDEX 00 05:44:47
FILE "06 - Pelican Pose.wav" WAVE
INDEX 01 00:00:00
TRACK 07 AUDIO
TITLE "Summer Ballad"
PERFORMER "Ivo Perelman Trio with Rory Stuart"
FLAGS DCP
INDEX 00 04:38:50
FILE "07 - Summer Ballad.wav" WAVE
INDEX 01 00:00:00
TRACK 08 AUDIO
TITLE "Bobaba Dubaa"
PERFORMER "Ivo Perelman Trio with Rory Stuart"
FLAGS DCP
INDEX 00 06:33:33
FILE "08 - Bobaba Dubaa.wav" WAVE
INDEX 01 00:00:00
TRACK 09 AUDIO
TITLE "In A Sentimental Mood"
PERFORMER "Ivo Perelman Trio with Rory Stuart"
FLAGS DCP
INDEX 00 05:19:46
FILE "09 - In A Sentimental Mood.wav" WAVE
INDEX 01 00:00:00
TRACK 10 AUDIO
TITLE "Ivocation"
PERFORMER "Ivo Perelman Trio with Rory Stuart"
FLAGS DCP
INDEX 00 12:35:46
FILE "10 - Ivocation.wav" WAVE
INDEX 01 00:00:00
 
Доп. информация
Recorded at The Spirit Room, Rossie, NY, October 10, 1996
 
Об альбоме (сборнике)
The idea for this session, which is in essence an old fashioned jam session, had it genesis with Dominic&Jay. After finishing up the second day of recording for Ivo's Slaves of Job (CIMP 126) session, Dominic and Jay wanted to try recording in a not purely acoustic setting. So after about four hours of rest the trio again met in the Spirit Room. Also present was guitarist Rory Stuart, who had been in the area visiting, and who had been an observer during most of the previous day's recording. I had produced Rory's first recording, Nightwork, for Cadence Jazz Records in 1983. On the basis of that and his fine records for Sunnyside Records, and with the exception of some more avant work with trombonist Michael Vlatkovich, I basically thought of Rory as a musician in the progressive Bop genre. I was pretty skeptical of this combination; I just didn't hear it. However, I also knew that all four musicians had expansive musical and mental capabilities and I have more than once enjoyed the revelations and rewards of the artistic surprise. And surprised I was, pleasantly so. Rory's sound fit in perfectly and had a spreading effect on the music, allowing a focus for greater definition and vision on the other instruments. This session is not typical for CIMP in that it was not envisioned and formulated in advance. It happened out of the circumstances of the moment. When it took place, no one had any commitment to or expectation of releasing the material. It was an exploratory occasion. The fact is, Rory had never before played with this trio or any of the individuals. However, no matter how much planning is done, art is, at its essence at birth, of the moment. It works or itdoesn't. For myself and those involved this worked, and worked well. To preserve this birth and its evolution in its original state, I have kept the music in the order it was recorded. And so, while there are the individual performances to enjoy, there is also the added dimension of the whole and its development. The inclusion of two pieces using the Auld Lang Syne motif came about when, after the first take (track 4) was recorded, I asked the group if they could do it again and this time expand the blues riff that Rory briefly alluded to the first time. The second take (track 5) had such a different ambience I've kept both for my enjoyment and, I hope, yours. Is this just the first document of this grouping? Will there be more? I don't know. What I do know is that this occasion has had an effect on each musician and will in various ways from time to time affect their future work and perspectives. For me it was a revelation. ~ robert d. rusch, cimprecords.com
Led by tenor saxophonist Ivo Perelman, this group features bassist Dominic Duval and drummer Jay Rosen - who comprise his core trio and includes guest guitarist Rory Stuart. Throughout, the format is loose, allowing the music to spontaneously unfold; however, the multi-dimensional results are a cut above the the unbridled chaos usually associated with free jam sessions. "Waiting For Plugs" begins pensively, with Stuart coaxing disjointed sounds from his instrument as the rhythm section reacts in the background; later on, Perelman periodically imitates the guitar, and then painfully screeches alone, initiating another group episode. In contrast, "Drips" follows an arched design with the guitar playing pointillistically and the trio following suit until reaching a peak that tapers into nothingness. Two of the more amusing tracks are based on "Auld Lang Syne;" the first develops over an eerie drone, while the second mines a bluesy vein. The remaining pieces reflect an equally refined balance of freedom and control. In short, Revelation features creative music that places close listening and group interaction above more mundane considerations like what scale to play over a particular chord. ~ jim ferguson, jazztimes.com, november 1997
Recorded only about four hours after Ivo Perelman had finished his Slaves of Job session for CIMP, Revelation wasn't the first time he had played with bassist Dominic Duval and drummer Jay Rosen. However, it did mark the first time those three players formed a quartet with guitarist Rory Stuart. Revelation is essentially an informal jam session; the players simply got together and started blowing without having done any real preparation. But the quartet proved to cohesive and enthusiastic on material by Perelman, Duval and Stuart (most of which favors space over density) as well as unorthodox interpretations of "Auld Lang Syne" and Duke Ellington's "In a Sentimental Mood" (which is closer to jazz's mainstream than Perelman usually gets). Although not among Perelman's essential releases, Revelation is an interesting CD that the saxophonist's more devoted followers will find of interest. ~ alex henderson, allmusic.com
 
Состав
Ivo Perelman - tenor saxophone
Rory Stuart - guitar
Dominic Duval - bass
Jay Rosen - drums, percussion
Any questions -> support@pro-jazz.com. По всем вопросам пишите -> support@pro-jazz.com
09:26
187
Нет комментариев. Ваш будет первым!