Вы используете незарегистрированную версию компонента "Вкладки"!

Поиск

(Free Jazz, Post-Bop) [CD] Steve Lacy - Reflections: Steve Lacy Plays Thelonious Monk - 1958 (1990 OJC), FLAC (tracks+.cue), lossless

(Free Jazz, Post-Bop) [CD] Steve Lacy - Reflections: Steve Lacy Plays Thelonious Monk - 1958 (1990 OJC), FLAC (tracks+.cue), lossless
Треклист:
Steve Lacy - Reflections: Steve Lacy Plays Thelonious Monk
Жанр: Free Jazz, Post-Bop
Носитель: CD
Страна-производитель диска: США
Год издания: 1990
Издатель (лейбл): Prestige-New Jazz/Original Jazz Classics
Номер по каталогу: OJCCD-063-2 (NJ-8206)
Аудиокодек: FLAC (*.flac)
Тип рипа: tracks+.cue
Битрейт аудио: lossless
Продолжительность: 36:56
Источник (релизер): disorderian (what)
Наличие сканов в содержимом раздачи: нет
Треклист:
01. Four in One (Monk) - 6:09
02. Reflections (Monk) - 4:10
03. Hornin' In (Monk) - 5:19
04. Bye-Ya (Monk) - 4:41
05. Let's Call This (Monk) - 7:18
06. Ask Me Now (Monk) - 4:57
07. Skippy (Monk) - 4:22
Состав:
Steve Lacy - soprano saxophone
Mal Waldron - piano
Buell Neidlinger - bass
Elvin Jones - drums
Recorded in Hackensack, NJ on October 17, 1958.
Digital mastering by Phil De Lancie.
 
Лог создания рипа
Exact Audio Copy V1.0 beta 3 from 29. August 2011
EAC extraction logfile from 22. June 2014, 17:39
Steve Lacy / Reflections: Steve Lacy Plays Thelonious Monk
Used drive : PLEXTOR DVDR PX-L890SA Adapter: 2 ID: 0
Read mode : Secure
Utilize accurate stream : Yes
Defeat audio cache : Yes
Make use of C2 pointers : No
Read offset correction : 6
Overread into Lead-In and Lead-Out : No
Fill up missing offset samples with silence : Yes
Delete leading and trailing silent blocks : No
Null samples used in CRC calculations : Yes
Used interface : Native Win32 interface for Win NT & 2000
Gap handling : Appended to previous track
Used output format : User Defined Encoder
Selected bitrate : 896 kBit/s
Quality : High
Add ID3 tag : No
Command line compressor : C:\Program Files (x86)\FLAC Frontend\tools\flac.exe
Additional command line options : -8 -V -T "ARTIST=%artist%" -T "TITLE=%title%" -T "ALBUM=%albumtitle%" -T "DATE=%year%" -T "TRACKNUMBER=%tracknr%" -T "TOTALTRACKS=%numtracks%" -T "GENRE=%genre%" -T "ALBUMARTIST=%albumartist%" -T "ALBUM ARTIST=%albumartist%" -T "COMMENT=EAC Secure Mode, Test & Copy, AccurateRip, FLAC -8" %source%
TOC of the extracted CD
Track | Start | Length | Start sector | End sector
---------------------------------------------------------
1 | 0:00.00 | 6:09.20 | 0 | 27694
2 | 6:09.20 | 4:10.25 | 27695 | 46469
3 | 10:19.45 | 5:19.05 | 46470 | 70399
4 | 15:38.50 | 4:41.15 | 70400 | 91489
5 | 20:19.65 | 7:17.70 | 91490 | 124334
6 | 27:37.60 | 4:56.57 | 124335 | 146591
7 | 32:34.42 | 4:21.68 | 146592 | 166234
Track 1
Filename E:\PT\Steve Lacy - Reflections- Steve Lacy Plays Thelonious Monk(1990)[flac]\01 - Four in One.wav
Pre-gap length 0:00:02.00
Peak level 84.1 %
Extraction speed 3.6 X
Track quality 100.0 %
Test CRC 6594BFE4
Copy CRC 6594BFE4
Accurately ripped (confidence 2) [D8A529BB] (AR v1)
Copy OK
Track 2
Filename E:\PT\Steve Lacy - Reflections- Steve Lacy Plays Thelonious Monk(1990)[flac]\02 - Reflections.wav
Pre-gap length 0:00:03.25
Peak level 72.7 %
Extraction speed 3.2 X
Track quality 99.9 %
Test CRC 57C2BE72
Copy CRC 57C2BE72
Accurately ripped (confidence 2) [85439410] (AR v1)
Copy OK
Track 3
Filename E:\PT\Steve Lacy - Reflections- Steve Lacy Plays Thelonious Monk(1990)[flac]\03 - Hornin' In.wav
Pre-gap length 0:00:03.00
Peak level 90.9 %
Extraction speed 3.7 X
Track quality 99.9 %
Test CRC 87034794
Copy CRC 87034794
Accurately ripped (confidence 2) [DBF3D56E] (AR v1)
Copy OK
Track 4
Filename E:\PT\Steve Lacy - Reflections- Steve Lacy Plays Thelonious Monk(1990)[flac]\04 - Bye-Ya.wav
Pre-gap length 0:00:03.48
Peak level 91.0 %
Extraction speed 3.9 X
Track quality 99.9 %
Test CRC E571973B
Copy CRC E571973B
Accurately ripped (confidence 2) [F57D2C8D] (AR v1)
Copy OK
Track 5
Filename E:\PT\Steve Lacy - Reflections- Steve Lacy Plays Thelonious Monk(1990)[flac]\05 - Let's Call This.wav
Pre-gap length 0:00:02.05
Peak level 92.7 %
Extraction speed 4.7 X
Track quality 99.9 %
Test CRC 148A8703
Copy CRC 148A8703
Accurately ripped (confidence 2) [FA5C23DD] (AR v1)
Copy OK
Track 6
Filename E:\PT\Steve Lacy - Reflections- Steve Lacy Plays Thelonious Monk(1990)[flac]\06 - Ask Me Now.wav
Pre-gap length 0:00:03.60
Peak level 66.9 %
Extraction speed 5.5 X
Track quality 100.0 %
Test CRC 16561728
Copy CRC 16561728
Accurately ripped (confidence 2) [5AC185DA] (AR v1)
Copy OK
Track 7
Filename E:\PT\Steve Lacy - Reflections- Steve Lacy Plays Thelonious Monk(1990)[flac]\07 - Skippy.wav
Pre-gap length 0:00:02.62
Peak level 92.3 %
Extraction speed 5.7 X
Track quality 100.0 %
Test CRC 8DEA2385
Copy CRC 8DEA2385
Accurately ripped (confidence 2) [2EDBD0D3] (AR v1)
Copy OK
All tracks accurately ripped
No errors occurred
End of status report
---- CUETools DB Plugin V2.1.5
[CTDB TOCID: FgFDIjLhaeBAuHFWDF8gb9HNHqg-] found
Submit result: 操作超时
Track | CTDB Status
1 | (1/1) Accurately ripped
2 | (1/1) Accurately ripped
3 | (1/1) Accurately ripped
4 | (1/1) Accurately ripped
5 | (1/1) Accurately ripped
6 | (1/1) Accurately ripped
7 | (1/1) Accurately ripped
==== Log checksum 152873131B5ABB54D7E3A2C4F67B69702680B10D7BCF20BF16922A72E9B1CCF7 ====
 
Содержание индексной карты (.CUE)
REM GENRE Jazz
REM DATE 1958
REM DISCID 5308A807
REM COMMENT "ExactAudioCopy v1.0b3"
PERFORMER "Steve Lacy"
TITLE "Reflections: Steve Lacy Plays Thelonious Monk"
FILE "01 - Four in One.wav" WAVE
TRACK 01 AUDIO
TITLE "Four in One"
PERFORMER "Steve Lacy"
INDEX 01 00:00:00
TRACK 02 AUDIO
TITLE "Reflections"
PERFORMER "Steve Lacy"
INDEX 00 06:05:70
FILE "02 - Reflections.wav" WAVE
INDEX 01 00:00:00
TRACK 03 AUDIO
TITLE "Hornin' In"
PERFORMER "Steve Lacy"
INDEX 00 04:07:25
FILE "03 - Hornin' In.wav" WAVE
INDEX 01 00:00:00
TRACK 04 AUDIO
TITLE "Bye-Ya"
PERFORMER "Steve Lacy"
INDEX 00 05:15:32
FILE "04 - Bye-Ya.wav" WAVE
INDEX 01 00:00:00
TRACK 05 AUDIO
TITLE "Let's Call This"
PERFORMER "Steve Lacy"
INDEX 00 04:39:10
FILE "05 - Let's Call This.wav" WAVE
INDEX 01 00:00:00
TRACK 06 AUDIO
TITLE "Ask Me Now"
PERFORMER "Steve Lacy"
INDEX 00 07:14:10
FILE "06 - Ask Me Now.wav" WAVE
INDEX 01 00:00:00
TRACK 07 AUDIO
TITLE "Skippy"
PERFORMER "Steve Lacy"
INDEX 00 04:53:70
FILE "07 - Skippy.wav" WAVE
INDEX 01 00:00:00
 
Отчет CUETools
[CUETools log; Date: 23.06.2014 20:44:28; Version: 2.1.4]
[CTDB TOCID: FgFDIjLhaeBAuHFWDF8gb9HNHqg-] found.
Track | CTDB Status
1 | (1/1) Accurately ripped
2 | (1/1) Accurately ripped
3 | (1/1) Accurately ripped
4 | (1/1) Accurately ripped
5 | (1/1) Accurately ripped
6 | (1/1) Accurately ripped
7 | (1/1) Accurately ripped
[AccurateRip ID: 000a45c1-003d952d-5308a807] found.
Track [ CRC | V2 ] Status
01 [d8a529bb|b0430686] (2+0/2) Accurately ripped
02 [85439410|58fcfb1c] (2+0/2) Accurately ripped
03 [dbf3d56e|cd10cdbc] (2+0/2) Accurately ripped
04 [f57d2c8d|372bea3d] (2+0/2) Accurately ripped
05 [fa5c23dd|414159b8] (2+0/2) Accurately ripped
06 [5ac185da|7ce37352] (2+0/2) Accurately ripped
07 [2edbd0d3|4318ea19] (2+0/2) Accurately ripped
Track Peak [ CRC32 ] [W/O NULL] [ LOG ]
-- 92,7 [FD69860D] [1C134544]
01 84,1 [6594BFE4] [F7D8C099] CRC32
02 72,7 [57C2BE72] [40692F6A] CRC32
03 90,9 [87034794] [D9FCF3D6] CRC32
04 91,0 [E571973B] [E0CF09CB] CRC32
05 92,7 [148A8703] [428BE40F] CRC32
06 66,9 [16561728] [52DC8146] CRC32
07 92,3 [8DEA2385] [C2C8BB5C] CRC32
 
Review by Scott Yanow
All of soprano saxophonist Steve Lacy's early recordings are quite fascinating, for during 1957-1964, aspects of his style at times hinted at Dixieland, swing, Monk, and Cecil Taylor, sometimes at the same time. For this CD reissue (a straight reproduction of the original New Jazz LP), Lacy teams up with pianist Mal Waldron, bassist Buell Neidlinger, and drummer Elvin Jones for seven Thelonious Monk compositions. The typical standbys (such as "'Round Midnight," "Straight No Chaser," and "Blue Monk") are avoided in favor of more complex works such as "Four in One," "Bye-Ya," and "Skippy"; the sweet ballad "Ask Me Now" is a highpoint. Lacy always had an affinity for Monk's music and, even nearly 40 years later, this set is a delight.
По всем вопросам пишите личное сообщение пользователю M0p94ok.
02:57
297
Нет комментариев. Ваш будет первым!