Вы используете незарегистрированную версию компонента "Вкладки"!

Поиск

(avant-garde) [cd] George E. Lewis & Bertram Turetzky - Conversations 1998, FLAC (tracks+.cue), lossless

(avant-garde) [cd] George E. Lewis & Bertram Turetzky - Conversations 1998, FLAC (tracks+.cue), lossless
Треклист:


George E. Lewis & Bertram Turetzky - Conversations 1998

Жанр: avant-garde
Год выпуска: 1998
Издатель (лейбл): Incus / CD32
Формат: FLAC (tracks+.cue)
Битрейт аудио: lossless
Продолжительность 54`05
Источник: what.cd, Bruitiste

tracks

1 North Country Diatribe 3:23
2 After Dark 9:06
3 Brief Ballad 3:52
4 Take One (With Apologies To Paul Desmond) 5:09
5 Blues For Lester B, 6:11
6 J7+P3 7:56
7 Happy To You 7:54
8 Random Dynamics 6:21
9 The Ecumenical Blues 4:08


 
.log
Exact Audio Copy V1.0 beta 3 from 29. August 2011
EAC extraction logfile from 21. October 2013, 13:43
George E. Lewis & Bertram Turetzky / Conversations
Used drive : LITE-ON DVD SOHD-16P9S Adapter: 0 ID: 0
Read mode : Secure
Utilize accurate stream : Yes
Defeat audio cache : Yes
Make use of C2 pointers : No
Read offset correction : 6
Overread into Lead-In and Lead-Out : No
Fill up missing offset samples with silence : Yes
Delete leading and trailing silent blocks : No
Null samples used in CRC calculations : Yes
Used interface : Native Win32 interface for Win NT & 2000
Gap handling : Appended to previous track
Used output format : User Defined Encoder
Selected bitrate : 1024 kBit/s
Quality : High
Add ID3 tag : No
Command line compressor : C:\EAC\Exact Audio Copy\FLAC\flac.exe
Additional command line options : -8 -V -T "ARTIST=%artist%" -T "TITLE=%title%" -T "ALBUM=%albumtitle%" -T "DATE=%year%" -T "TRACKNUMBER=%tracknr%" -T "GENRE=%genre%" -T "PERFORMER=%albuminterpret%" -T "COMPOSER=%composer%" %haslyrics%--tag-from-file=LYRICS="%lyricsfile%"%haslyrics% -T "ALBUMARTIST=%albumartist%" -T "DISCNUMBER=%cdnumber%" -T "TOTALDISCS=%totalcds%" -T "TOTALTRACKS=%numtracks%" -T "COMMENT=%comment%" %source% -o %dest%
TOC of the extracted CD
Track | Start | Length | Start sector | End sector
---------------------------------------------------------
1 | 0:00.00 | 3:23.60 | 0 | 15284
2 | 3:23.60 | 9:06.54 | 15285 | 56288
3 | 12:30.39 | 3:52.45 | 56289 | 73733
4 | 16:23.09 | 5:09.39 | 73734 | 96947
5 | 21:32.48 | 6:11.09 | 96948 | 124781
6 | 27:43.57 | 7:56.25 | 124782 | 160506
7 | 35:40.07 | 7:54.46 | 160507 | 196102
8 | 43:34.53 | 6:21.66 | 196103 | 224743
9 | 49:56.44 | 4:08.33 | 224744 | 243376
Track 1
Filename C:\EAC-rips\George E. Lewis & Bertram Turetzky - Conversations\01 - North Country Diatribe.wav
Pre-gap length 0:00:02.00
Peak level 74.5 %
Extraction speed 5.3 X
Track quality 100.0 %
Test CRC 0DCC6A95
Copy CRC 0DCC6A95
Track not present in AccurateRip database
Copy OK
Track 2
Filename C:\EAC-rips\George E. Lewis & Bertram Turetzky - Conversations\02 - After Dark.wav
Peak level 68.5 %
Extraction speed 6.7 X
Track quality 100.0 %
Test CRC E5D82311
Copy CRC E5D82311
Track not present in AccurateRip database
Copy OK
Track 3
Filename C:\EAC-rips\George E. Lewis & Bertram Turetzky - Conversations\03 - Bried Ballad.wav
Peak level 76.6 %
Extraction speed 6.9 X
Track quality 100.0 %
Test CRC B7C4E544
Copy CRC B7C4E544
Track not present in AccurateRip database
Copy OK
Track 4
Filename C:\EAC-rips\George E. Lewis & Bertram Turetzky - Conversations\04 - Take One (with apologies to Paul Desmond).wav
Peak level 64.5 %
Extraction speed 7.6 X
Track quality 100.0 %
Test CRC 4040131C
Copy CRC 4040131C
Track not present in AccurateRip database
Copy OK
Track 5
Filename C:\EAC-rips\George E. Lewis & Bertram Turetzky - Conversations\05 - Blues for Lester B,.wav
Peak level 79.6 %
Extraction speed 8.5 X
Track quality 100.0 %
Test CRC 1F2FDB02
Copy CRC 1F2FDB02
Track not present in AccurateRip database
Copy OK
Track 6
Filename C:\EAC-rips\George E. Lewis & Bertram Turetzky - Conversations\06 - J7+P3.wav
Peak level 77.9 %
Extraction speed 9.3 X
Track quality 100.0 %
Test CRC CAFAC2F7
Copy CRC CAFAC2F7
Track not present in AccurateRip database
Copy OK
Track 7
Filename C:\EAC-rips\George E. Lewis & Bertram Turetzky - Conversations\07 - Happy to You.wav
Peak level 86.6 %
Extraction speed 9.7 X
Track quality 100.0 %
Test CRC 8687A2E9
Copy CRC 8687A2E9
Track not present in AccurateRip database
Copy OK
Track 8
Filename C:\EAC-rips\George E. Lewis & Bertram Turetzky - Conversations\08 - Random Dynamics.wav
Peak level 82.6 %
Extraction speed 10.0 X
Track quality 100.0 %
Test CRC A6EBB071
Copy CRC A6EBB071
Track not present in AccurateRip database
Copy OK
Track 9
Filename C:\EAC-rips\George E. Lewis & Bertram Turetzky - Conversations\09 - The Ecumenical Blues.wav
Peak level 87.8 %
Extraction speed 9.9 X
Track quality 100.0 %
Test CRC CCA719C2
Copy CRC CCA719C2
Track not present in AccurateRip database
Copy OK
None of the tracks are present in the AccurateRip database
No errors occurred
End of status report
---- CUETools DB Plugin V2.1.3
[CTDB TOCID: VpClE3e2lingK4FYx2uK02stYag-] disk not present in database, Submit result: VpClE3e2lingK4FYx2uK02stYag- has been uploaded
==== Log checksum 02B689800D24B0AC9EAC47373C09FC397924EA8AC7A6008E4A2EE98C787C333A ====
 
.cue
REM GENRE free jazz
REM DATE 1998
REM DISCID 830CAD09
REM COMMENT ExactAudioCopy v1.0b3
PERFORMER "George E. Lewis & Bertram Turetzky"
TITLE "Conversations"
FILE "01 - North Country Diatribe.wav" WAVE
TRACK 01 AUDIO
TITLE "North Country Diatribe"
INDEX 01 00:00:00
FILE "02 - After Dark.wav" WAVE
TRACK 02 AUDIO
TITLE "After Dark"
INDEX 01 00:00:00
FILE "03 - Bried Ballad.wav" WAVE
TRACK 03 AUDIO
TITLE "Bried Ballad"
INDEX 01 00:00:00
FILE "04 - Take One (with apologies to Paul Desmond).wav" WAVE
TRACK 04 AUDIO
TITLE "Take One (with apologies to Paul Desmond)"
INDEX 01 00:00:00
FILE "05 - Blues for Lester B,.wav" WAVE
TRACK 05 AUDIO
TITLE "Blues for Lester B,"
INDEX 01 00:00:00
FILE "06 - J7+P3.wav" WAVE
TRACK 06 AUDIO
TITLE "J7+P3"
INDEX 01 00:00:00
FILE "07 - Happy to You.wav" WAVE
TRACK 07 AUDIO
TITLE "Happy to You"
INDEX 01 00:00:00
FILE "08 - Random Dynamics.wav" WAVE
TRACK 08 AUDIO
TITLE "Random Dynamics"
INDEX 01 00:00:00
FILE "09 - The Ecumenical Blues.wav" WAVE
TRACK 09 AUDIO
TITLE "The Ecumenical Blues"
INDEX 01 00:00:00

http://www.discogs.com/George-E-Lewis-Bertram-Turetzky-Conversations/release/2375135
другие релизы
По всем вопросам пишите личное сообщение пользователю M0p94ok.
02:58
237
Нет комментариев. Ваш будет первым!