Поиск

(Free Jazz) Ornette Coleman (Dewey Redman, Jimmy Garrison, Elvin Jones) - New York Is Now! - 1990 (1968), FLAC (tracks+.cue) lossless

Треклист:
Ornette Coleman / New York Is Now!
Жанр: Free Jazz
Страна-производитель диска: США
Год издания диска: 1990 (1968)
Издатель (лейбл): Blue Note
Номер по каталогу: CDP 7 84287 2
Страна: США
Аудио кодек: FLAC (*.flac)
Тип рипа: tracks+.cue
Битрейт аудио: lossless
Продолжительность: 47:28
Источник (релизер): вот.сиди (aet)
Наличие сканов в содержимом раздачи: нет
Треклист:
1 The Garden Of Souls 14:00
2 Toy Dance 7:29
3 Broad Way Blues 8:44
4 Broad Way Blues (Alternate Take) 7:35
5 Round Trip 6:19
6 We Now Interrupt For A Commercial 3:19
Recorded at A&R Studios, New York City on April 29 and May 7, 1968. Remixed from analog 4-track to digital in July, 1989.
ещё одна пластинка, записанная во время этих сессий - Love Call
 
Лог создания рипа
Exact Audio Copy V0.99 prebeta 4 from 23. January 2008
EAC extraction logfile from 8. May 2009, 8:07
New York Is Now / Ornette Coleman
Used drive : TSSTcorpDVD+-RW TS-L632H Adapter: 1 ID: 0
Read mode : Secure
Utilize accurate stream : Yes
Defeat audio cache : Yes
Make use of C2 pointers : No
Read offset correction : 6
Overread into Lead-In and Lead-Out : No
Fill up missing offset samples with silence : Yes
Delete leading and trailing silent blocks : No
Null samples used in CRC calculations : Yes
Used interface : Native Win32 interface for Win NT & 2000
Gap handling : Appended to previous track
Used output format : User Defined Encoder
Selected bitrate : 768 kBit/s
Quality : High
Add ID3 tag : No
Command line compressor : C:\Program Files\Exact Audio Copy\FLAC\FLAC.EXE
Additional command line options : -V -8 -T "artist=%a" -T "title=%t" -T "album=%g" -T "date=%y" -T "tracknumber=%n" -T "genre=%m" %s
TOC of the extracted CD
Track | Start | Length | Start sector | End sector
---------------------------------------------------------
1 | 0:00.00 | 14:00.35 | 0 | 63034
2 | 14:00.35 | 7:28.70 | 63035 | 96704
3 | 21:29.30 | 8:43.57 | 96705 | 135986
4 | 30:13.12 | 7:35.15 | 135987 | 170126
5 | 37:48.27 | 6:18.50 | 170127 | 198526
6 | 44:07.02 | 3:21.03 | 198527 | 213604
Track 1
Filename C:\EAC_Rips\New York Is Now - 1990 - Ornette Coleman\01 The Garden of Souls.wav
Pre-gap length 0:00:02.00
Peak level 76.0 %
Track quality 99.9 %
Test CRC DC9EDEE1
Copy CRC DC9EDEE1
Track not present in AccurateRip database
Copy OK
Track 2
Filename C:\EAC_Rips\New York Is Now - 1990 - Ornette Coleman\02 Toy Dance.wav
Pre-gap length 0:00:03.40
Peak level 72.3 %
Track quality 99.9 %
Test CRC 94620372
Copy CRC 94620372
Track not present in AccurateRip database
Copy OK
Track 3
Filename C:\EAC_Rips\New York Is Now - 1990 - Ornette Coleman\03 Broad Way Blues.wav
Pre-gap length 0:00:03.20
Peak level 75.6 %
Track quality 100.0 %
Test CRC 6606F07A
Copy CRC 6606F07A
Track not present in AccurateRip database
Copy OK
Track 4
Filename C:\EAC_Rips\New York Is Now - 1990 - Ornette Coleman\04 Broad Way Blues (Alternate Version).wav
Pre-gap length 0:00:02.96
Peak level 72.3 %
Track quality 100.0 %
Test CRC E46A82FA
Copy CRC E46A82FA
Track not present in AccurateRip database
Copy OK
Track 5
Filename C:\EAC_Rips\New York Is Now - 1990 - Ornette Coleman\05 Round Trip.wav
Pre-gap length 0:00:02.66
Peak level 79.2 %
Track quality 100.0 %
Test CRC 5233CBA8
Copy CRC 5233CBA8
Track not present in AccurateRip database
Copy OK
Track 6
Filename C:\EAC_Rips\New York Is Now - 1990 - Ornette Coleman\06 We Now Interrupt For A Commercial (Bonus Track).wav
Pre-gap length 0:00:02.20
Peak level 84.7 %
Track quality 100.0 %
Test CRC 78DDF32B
Copy CRC 78DDF32B
Track not present in AccurateRip database
Copy OK
None of the tracks are present in the AccurateRip database
No errors occurred
End of status report
 
Содержание индексной карты (.CUE)
REM GENRE Jazz
REM DATE 1990
REM DISCID 4C0B2006
REM COMMENT "ExactAudioCopy v0.99pb4"
PERFORMER "New York Is Now"
TITLE "Ornette Coleman"
FILE "New York Is Now - 1990 - Ornette Coleman\01 The Garden of Souls.wav" WAVE
TRACK 01 AUDIO
TITLE "The Garden of Souls"
PERFORMER "New York Is Now"
INDEX 01 00:00:00
TRACK 02 AUDIO
TITLE "Toy Dance"
PERFORMER "New York Is Now"
INDEX 00 13:57:05
FILE "New York Is Now - 1990 - Ornette Coleman\02 Toy Dance.wav" WAVE
INDEX 01 00:00:00
TRACK 03 AUDIO
TITLE "Broad Way Blues"
PERFORMER "New York Is Now"
INDEX 00 07:25:55
FILE "New York Is Now - 1990 - Ornette Coleman\03 Broad Way Blues.wav" WAVE
INDEX 01 00:00:00
TRACK 04 AUDIO
TITLE "Broad Way Blues (Alternate Version)"
PERFORMER "New York Is Now"
INDEX 00 08:40:60
FILE "New York Is Now - 1990 - Ornette Coleman\04 Broad Way Blues (Alternate Version).wav" WAVE
INDEX 01 00:00:00
TRACK 05 AUDIO
TITLE "Round Trip"
PERFORMER "New York Is Now"
INDEX 00 07:32:40
FILE "New York Is Now - 1990 - Ornette Coleman\05 Round Trip.wav" WAVE
INDEX 01 00:00:00
TRACK 06 AUDIO
TITLE "We Now Interrupt For A Commercial (Bonus Track)"
PERFORMER "New York Is Now"
INDEX 00 06:16:35
FILE "New York Is Now - 1990 - Ornette Coleman\06 We Now Interrupt For A Commercial (Bonus Track).wav" WAVE
INDEX 01 00:00:00
 
Лог проверки качества
AUDIOCHECKER v2.0 beta (build 457) - by Dester - opdester@freemail.hu
~~~~~~~~~~~~~~~~~~~~~~~~~~~~~~~~~~
-=== DO NOT EDIT THIS FILE! ===-
Path: ...\Ornette Coleman - 1990 - New York Is Now
1 -=- 01 The Garden of Souls.flac -=- CDDA (100%)
2 -=- 02 Toy Dance.flac -=- CDDA (100%)
3 -=- 03 Broad Way Blues.flac -=- CDDA (100%)
4 -=- 04 Broad Way Blues (Alternate Version).flac -=- CDDA (100%)
5 -=- 05 Round Trip.flac -=- CDDA (100%)
6 -=- 06 We Now Interrupt For A Commercial (Bonus Track).flac -=- CDDA (100%)
Summary 100,00% CDDA
88734276
 
Состав
Ornette Coleman alto saxophone, trumpet (6)
Dewey Redman tenor saxophone, voice (6)
Jimmy Garrison bass
Elvin Jones drums
По всем вопросам пишите личное сообщение пользователю M0p94ok.
09:28
369
Нет комментариев. Ваш будет первым!