Вы используете незарегистрированную версию компонента "Вкладки"!

Поиск

(Free Jazz) Ornette Coleman (Dewey Redman, Jimmy Garrison, Elvin Jones) - Love Call - 1990 (1968), FLAC (tracks+.cue) lossless

(Free Jazz) Ornette Coleman (Dewey Redman, Jimmy Garrison, Elvin Jones) - Love Call - 1990 (1968), FLAC (tracks+.cue) lossless
Треклист:
Ornette Coleman / Love Call
Жанр: Free Jazz
Страна-производитель диска: США
Год издания диска: 1990 (1968)
Издатель (лейбл): Blue Note
Номер по каталогу: CDP 7 84356 2
Страна: США
Аудио кодек: FLAC (*.flac)
Тип рипа: tracks+.cue
Битрейт аудио: lossless
Продолжительность: 53:27
Источник (релизер): вот.сиди (QuantError)
Наличие сканов в содержимом раздачи: нет
Треклист:
1 Airborne 10:25
2 Check Out Time 8:20
3 Check Out Time - Alternate Version 7:54
4 Open To The Public 8:03
5 Love Call 8:42
6 Love Call - Alternate Version 5:30
7 Just For You 4:14
Recorded at A&R Studios, New York City on April 29 and May 7, 1968.
3, 6, 7 - bonus tracks not contained on original lp version
ещё одна пластинка, записанная во время этих сессий - New York Is Now!
 
Лог создания рипа
Exact Audio Copy V0.99 prebeta 5 from 4. May 2009
EAC extraction logfile from 13. November 2010, 13:10
Ornette Coleman / Love Call
Used drive : PLEXTOR CD-ROM PX-40TS Adapter: 6 ID: 3
Read mode : Secure
Utilize accurate stream : Yes
Defeat audio cache : Yes
Make use of C2 pointers : No
Read offset correction : 676
Overread into Lead-In and Lead-Out : Yes
Fill up missing offset samples with silence : Yes
Delete leading and trailing silent blocks : No
Null samples used in CRC calculations : Yes
Used interface : Native Win32 interface for Win NT & 2000
Gap handling : Appended to previous track
Used output format : User Defined Encoder
Selected bitrate : 768 kBit/s
Quality : High
Add ID3 tag : No
Command line compressor : C:\Program Files (x86)\Exact Audio Copy\FLAC\FLAC.EXE
Additional command line options : -6 -V -T "ARTIST=%a" -T "TITLE=%t" -T "ALBUM=%g" -T "DATE=%y" -T "TRACKNUMBER=%n" -T "GENRE=%m" -T "COMMENT=%e" %s -o %d
TOC of the extracted CD
Track | Start | Length | Start sector | End sector
---------------------------------------------------------
1 | 0:00.00 | 10:30.42 | 0 | 47291
2 | 10:30.42 | 8:22.63 | 47292 | 85004
3 | 18:53.30 | 7:57.47 | 85005 | 120826
4 | 26:51.02 | 8:05.48 | 120827 | 157249
5 | 34:56.50 | 8:45.37 | 157250 | 196661
6 | 43:42.12 | 5:31.38 | 196662 | 221524
7 | 49:13.50 | 4:13.42 | 221525 | 240541
Track 1
Filename D:\Music\Ornette Coleman - Love Call\01. Airborne.wav
Pre-gap length 0:00:02.00
Peak level 92.9 %
Track quality 99.9 %
Test CRC 07E8EA38
Copy CRC 07E8EA38
Accurately ripped (confidence 4) [EDC1A3CF]
Copy OK
Track 2
Filename D:\Music\Ornette Coleman - Love Call\02. Check Out Time.wav
Pre-gap length 0:00:02.62
Peak level 92.6 %
Track quality 100.0 %
Test CRC BECCECD1
Copy CRC BECCECD1
Accurately ripped (confidence 4) [8256DAD6]
Copy OK
Track 3
Filename D:\Music\Ornette Coleman - Love Call\03. Check Out Time [alternate take].wav
Pre-gap length 0:00:02.20
Peak level 92.3 %
Track quality 100.0 %
Test CRC C42CDD06
Copy CRC C42CDD06
Accurately ripped (confidence 3) [E2900C3B]
Copy OK
Track 4
Filename D:\Music\Ornette Coleman - Love Call\04. Open To The Public.wav
Pre-gap length 0:00:03.02
Peak level 93.6 %
Track quality 100.0 %
Test CRC 6259FC00
Copy CRC 6259FC00
Accurately ripped (confidence 4) [A41536A2]
Copy OK
Track 5
Filename D:\Music\Ornette Coleman - Love Call\05. Love Call.wav
Pre-gap length 0:00:03.06
Peak level 81.1 %
Track quality 100.0 %
Test CRC 1EEB0D65
Copy CRC 1EEB0D65
Accurately ripped (confidence 4) [64E6000A]
Copy OK
Track 6
Filename D:\Music\Ornette Coleman - Love Call\06. Love Call [alternate take].wav
Pre-gap length 0:00:02.30
Peak level 92.3 %
Track quality 100.0 %
Test CRC 526562F8
Copy CRC 526562F8
Accurately ripped (confidence 4) [1FFA2922]
Copy OK
Track 7
Filename D:\Music\Ornette Coleman - Love Call\07. Just For You.wav
Pre-gap length 0:00:03.05
Peak level 65.2 %
Track quality 100.0 %
Test CRC 50F00D71
Copy CRC 50F00D71
Accurately ripped (confidence 4) [2807C1EE]
Copy OK
All tracks accurately ripped
No errors occurred
End of status report
 
Содержание индексной карты (.CUE)
REM GENRE Jazz
REM DATE 1968
REM DISCID 580C8707
REM COMMENT "ExactAudioCopy v0.99pb5"
PERFORMER "Ornette Coleman"
TITLE "Love Call"
FILE "01. Airborne.wav" WAVE
TRACK 01 AUDIO
TITLE "Airborne"
PERFORMER "Ornette Coleman"
INDEX 01 00:00:00
TRACK 02 AUDIO
TITLE "Check Out Time"
PERFORMER "Ornette Coleman"
INDEX 00 10:27:55
FILE "02. Check Out Time.wav" WAVE
INDEX 01 00:00:00
TRACK 03 AUDIO
TITLE "Check Out Time [alternate take]"
PERFORMER "Ornette Coleman"
INDEX 00 08:20:43
FILE "03. Check Out Time [alternate take].wav" WAVE
INDEX 01 00:00:00
TRACK 04 AUDIO
TITLE "Open To The Public"
PERFORMER "Ornette Coleman"
INDEX 00 07:54:45
FILE "04. Open To The Public.wav" WAVE
INDEX 01 00:00:00
TRACK 05 AUDIO
TITLE "Love Call"
PERFORMER "Ornette Coleman"
INDEX 00 08:02:42
FILE "05. Love Call.wav" WAVE
INDEX 01 00:00:00
TRACK 06 AUDIO
TITLE "Love Call [alternate take]"
PERFORMER "Ornette Coleman"
INDEX 00 08:43:07
FILE "06. Love Call [alternate take].wav" WAVE
INDEX 01 00:00:00
TRACK 07 AUDIO
TITLE "Just For You"
PERFORMER "Ornette Coleman"
INDEX 00 05:28:33
FILE "07. Just For You.wav" WAVE
INDEX 01 00:00:00
 
Лог проверки качества
AUDIOCHECKER v2.0 beta (build 457) - by Dester - opdester@freemail.hu
~~~~~~~~~~~~~~~~~~~~~~~~~~~~~~~~~~
-=== DO NOT EDIT THIS FILE! ===-
Path: ...\Ornette Coleman - Love Call
1 -=- 01. Airborne.flac -=- CDDA (99%)
2 -=- 02. Check Out Time.flac -=- CDDA (100%)
3 -=- 03. Check Out Time [alternate take].flac -=- CDDA (100%)
4 -=- 04. Open To The Public.flac -=- CDDA (100%)
5 -=- 05. Love Call.flac -=- CDDA (100%)
6 -=- 06. Love Call [alternate take].flac -=- CDDA (100%)
7 -=- 07. Just For You.flac -=- CDDA (99%)
Summary 99,71% CDDA
255223428
 
Состав
Ornette Coleman alto saxophone, trumpet
Dewey Redman tenor saxophone
Jimmy Garrison bass
Elvin Jones drums
По всем вопросам пишите личное сообщение пользователю M0p94ok.
09:29
376
Нет комментариев. Ваш будет первым!