Вы используете незарегистрированную версию компонента "Вкладки"!

Поиск

(Free Jazz) NRG Ensemble - Calling All Mothers - 1994, FLAC (tracks+.cue), lossless

(Free Jazz) NRG Ensemble - Calling All Mothers - 1994, FLAC (tracks+.cue), lossless
Треклист:
NRG Ensemble - Calling All Mothers
Жанр: Free Jazz
Страна-производитель диска: US
Год издания: 1994
Издатель (лейбл): Quinnah Records
Номер по каталогу: Q05
Аудиокодек: FLAC (*.flac)
Тип рипа: tracks+.cue
Битрейт аудио: lossless
Продолжительность: 56 min.
Источник (релизер): собственный рип с оригинального диска.
Наличие сканов в содержимом раздачи: да
Треклист:
01. Punch And Judy
02. Chasin' My Tail
03. Memory Seek
04. Symposium / Mr. Happy
05. You Never Buy Me Anything
06. American Tan
07. Kiteless String
08. Calling All Mothers
09. You're My Dream
10. Beneath the Weather
11. sraM
 
Лог создания рипа
Exact Audio Copy V1.0 beta 3 from 29. August 2011
EAC extraction logfile from 28. May 2013, 20:14
NRG Ensemble / Calling All Mothers
Used drive : TSSTcorpCDDVDW SH-S222A Adapter: 1 ID: 0
Read mode : Secure
Utilize accurate stream : Yes
Defeat audio cache : Yes
Make use of C2 pointers : No
Read offset correction : 6
Overread into Lead-In and Lead-Out : No
Fill up missing offset samples with silence : Yes
Delete leading and trailing silent blocks : No
Null samples used in CRC calculations : Yes
Used interface : Native Win32 interface for Win NT & 2000
Gap handling : Appended to previous track
Used output format : User Defined Encoder
Selected bitrate : 896 kBit/s
Quality : High
Add ID3 tag : No
Command line compressor : C:\Tool\CD\EAC10\FLAC\FLAC.EXE
Additional command line options : -8 -V -T "ARTIST=%artist%" -T "TITLE=%title%" -T "ALBUM=%albumtitle%" -T "DATE=%year%" -T "TRACKNUMBER=%tracknr%" -T "GENRE=%genre%" -T "PERFORMER=%albuminterpret%" -T "COMPOSER=%composer%" %haslyrics%--tag-from-file=LYRICS="%lyricsfile%"%haslyrics% -T "ALBUMARTIST=%albumartist%" -T "ALBUM ARTIST=%albumartist%" -T "DISCNUMBER=%cdnumber%" -T "TOTALDISCS=%totalcds%" -T "TOTALTRACKS=%numtracks%" -T "COMMENT=EAC V1.0 beta 3, Secure Mode, Test & Copy, AccurateRip, FLAC -8" %source% -o %dest%
TOC of the extracted CD
Track | Start | Length | Start sector | End sector
---------------------------------------------------------
1 | 0:00.00 | 5:26.45 | 0 | 24494
2 | 5:26.45 | 3:28.47 | 24495 | 40141
3 | 8:55.17 | 8:32.68 | 40142 | 78609
4 | 17:28.10 | 5:07.32 | 78610 | 101666
5 | 22:35.42 | 6:28.50 | 101667 | 130816
6 | 29:04.17 | 7:18.13 | 130817 | 163679
7 | 36:22.30 | 3:19.00 | 163680 | 178604
8 | 39:41.30 | 3:51.07 | 178605 | 195936
9 | 43:32.37 | 3:57.20 | 195937 | 213731
10 | 47:29.57 | 3:58.15 | 213732 | 231596
11 | 51:27.72 | 4:21.03 | 231597 | 251174
Track 1
Filename C:\! UPLOAD\NRG Ensemble - Calling All Mothers (1994) [FLAC]\01 - NRG Ensemble - Punch and Judy.wav
Pre-gap length 0:00:02.00
Peak level 100.0 %
Extraction speed 4.4 X
Track quality 100.0 %
Test CRC EA197C70
Copy CRC EA197C70
Accurately ripped (confidence 2) [F9BDF542] (AR v1)
Copy OK
Track 2
Filename C:\! UPLOAD\NRG Ensemble - Calling All Mothers (1994) [FLAC]\02 - NRG Ensemble - Chasin' My Tail.wav
Peak level 100.0 %
Extraction speed 4.6 X
Track quality 100.0 %
Test CRC 79E8AD9A
Copy CRC 79E8AD9A
Accurately ripped (confidence 2) [F2691440] (AR v1)
Copy OK
Track 3
Filename C:\! UPLOAD\NRG Ensemble - Calling All Mothers (1994) [FLAC]\03 - NRG Ensemble - Memory Seek.wav
Peak level 100.0 %
Extraction speed 5.1 X
Track quality 99.9 %
Test CRC BAB121AC
Copy CRC BAB121AC
Accurately ripped (confidence 2) [24ADC38C] (AR v1)
Copy OK
Track 4
Filename C:\! UPLOAD\NRG Ensemble - Calling All Mothers (1994) [FLAC]\04 - NRG Ensemble , Symposium - Symposium - Mr. Happy.wav
Peak level 100.0 %
Extraction speed 5.0 X
Track quality 99.9 %
Test CRC 62041BEE
Copy CRC 62041BEE
Accurately ripped (confidence 2) [E1CAEEE7] (AR v1)
Copy OK
Track 5
Filename C:\! UPLOAD\NRG Ensemble - Calling All Mothers (1994) [FLAC]\05 - NRG Ensemble - You Never Buy Me Anything.wav
Peak level 100.0 %
Extraction speed 6.5 X
Track quality 100.0 %
Test CRC 632138B7
Copy CRC 632138B7
Accurately ripped (confidence 2) [0159772A] (AR v1)
Copy OK
Track 6
Filename C:\! UPLOAD\NRG Ensemble - Calling All Mothers (1994) [FLAC]\06 - NRG Ensemble - American Tan.wav
Pre-gap length 0:00:01.15
Peak level 92.1 %
Extraction speed 7.1 X
Track quality 100.0 %
Test CRC E6BCFC0C
Copy CRC E6BCFC0C
Accurately ripped (confidence 2) [6243FACB] (AR v1)
Copy OK
Track 7
Filename C:\! UPLOAD\NRG Ensemble - Calling All Mothers (1994) [FLAC]\07 - NRG Ensemble - Kiteless String.wav
Pre-gap length 0:00:01.23
Peak level 100.0 %
Extraction speed 6.8 X
Track quality 100.0 %
Test CRC E176FE37
Copy CRC E176FE37
Accurately ripped (confidence 2) [702DB4D9] (AR v1)
Copy OK
Track 8
Filename C:\! UPLOAD\NRG Ensemble - Calling All Mothers (1994) [FLAC]\08 - NRG Ensemble - Calling All Mothers.wav
Peak level 90.1 %
Extraction speed 5.7 X
Track quality 99.9 %
Test CRC C3E5CBB9
Copy CRC C3E5CBB9
Track not present in AccurateRip database
Copy OK
Track 9
Filename C:\! UPLOAD\NRG Ensemble - Calling All Mothers (1994) [FLAC]\09 - NRG Ensemble - You're My Dream.wav
Peak level 92.6 %
Extraction speed 7.4 X
Track quality 100.0 %
Test CRC 63672775
Copy CRC 63672775
Track not present in AccurateRip database
Copy OK
Track 10
Filename C:\! UPLOAD\NRG Ensemble - Calling All Mothers (1994) [FLAC]\10 - NRG Ensemble - Beneath the Weather.wav
Peak level 95.1 %
Extraction speed 7.6 X
Track quality 100.0 %
Test CRC ABB8C9AB
Copy CRC ABB8C9AB
Track not present in AccurateRip database
Copy OK
Track 11
Filename C:\! UPLOAD\NRG Ensemble - Calling All Mothers (1994) [FLAC]\11 - NRG Ensemble - sraM.wav
Peak level 100.0 %
Extraction speed 7.9 X
Track quality 100.0 %
Test CRC A0560C93
Copy CRC A0560C93
Track not present in AccurateRip database
Copy OK
7 track(s) accurately ripped
4 track(s) not present in the AccurateRip database
Some tracks could not be verified as accurate
No errors occurred
End of status report
---- CUETools DB Plugin V2.1.3
[CTDB TOCID: uJhhGITs24qeQRiDBI3NFBN7m8Y-] disk not present in database, Submit result: uJhhGITs24qeQRiDBI3NFBN7m8Y- has been uploaded
==== Log checksum 35B6EFF074B0CC14318E2FC1450C1010B82A67E1F98F9FC31CC01AD014CA5192 ====
 
Содержание индексной карты (.CUE)
REM GENRE Jazz
REM DATE 1994
REM DISCID 960D150B
REM COMMENT "ExactAudioCopy v1.0b3"
PERFORMER "NRG Ensemble "
TITLE "Calling All Mothers"
FILE "01 - NRG Ensemble - Punch and Judy.wav" WAVE
TRACK 01 AUDIO
TITLE "Punch and Judy"
PERFORMER "NRG Ensemble "
INDEX 01 00:00:00
FILE "02 - NRG Ensemble - Chasin' My Tail.wav" WAVE
TRACK 02 AUDIO
TITLE "Chasin' My Tail"
PERFORMER "NRG Ensemble "
INDEX 01 00:00:00
FILE "03 - NRG Ensemble - Memory Seek.wav" WAVE
TRACK 03 AUDIO
TITLE "Memory Seek"
PERFORMER "NRG Ensemble "
INDEX 01 00:00:00
FILE "04 - NRG Ensemble , Symposium - Symposium - Mr. Happy.wav" WAVE
TRACK 04 AUDIO
TITLE "Symposium - Mr. Happy"
PERFORMER "NRG Ensemble / Symposium"
INDEX 01 00:00:00
FILE "05 - NRG Ensemble - You Never Buy Me Anything.wav" WAVE
TRACK 05 AUDIO
TITLE "You Never Buy Me Anything"
PERFORMER "NRG Ensemble "
INDEX 01 00:00:00
TRACK 06 AUDIO
TITLE "American Tan"
PERFORMER "NRG Ensemble "
INDEX 00 06:27:35
FILE "06 - NRG Ensemble - American Tan.wav" WAVE
INDEX 01 00:00:00
TRACK 07 AUDIO
TITLE "Kiteless String"
PERFORMER "NRG Ensemble "
INDEX 00 07:16:65
FILE "07 - NRG Ensemble - Kiteless String.wav" WAVE
INDEX 01 00:00:00
FILE "08 - NRG Ensemble - Calling All Mothers.wav" WAVE
TRACK 08 AUDIO
TITLE "Calling All Mothers"
PERFORMER "NRG Ensemble "
INDEX 01 00:00:00
FILE "09 - NRG Ensemble - You're My Dream.wav" WAVE
TRACK 09 AUDIO
TITLE "You're My Dream"
PERFORMER "NRG Ensemble "
INDEX 01 00:00:00
FILE "10 - NRG Ensemble - Beneath the Weather.wav" WAVE
TRACK 10 AUDIO
TITLE "Beneath the Weather"
PERFORMER "NRG Ensemble "
INDEX 01 00:00:00
FILE "11 - NRG Ensemble - sraM.wav" WAVE
TRACK 11 AUDIO
TITLE "sraM"
PERFORMER "NRG Ensemble "
INDEX 01 00:00:00
Доп. информация:
Recorded at Streetville Studios, Chicago, November 1993.
 
Об альбоме (Ben Burck)
Strange, tight compositions; three pieces by Russell, most of the others by either Vandermark or Williams. Great playing too. Imagine Albert Ayler playing the music of Raymond Scott.
 
Об альбоме (Jeff Smith)
The recording here is pristine - it's like being at a concert - and the playing is sharp, confident, and very powerful.
 
Об альбоме (William York)
They play virtually every piece like it's an encore, but, fortunately, the material is strong enough to sustain such intensity.
 
Состав
Mars Williams - reeds
Ken Vandermark - reeds
Brian Sandstrom - guitar, trumpet, bass
Kent Kessler - bass
Steve Hunt - drums, vibes, marimba
Any questions -> support@pro-jazz.com. По всем вопросам пишите -> support@pro-jazz.com
15:54
174
Нет комментариев. Ваш будет первым!