Вы используете незарегистрированную версию компонента "Вкладки"!

Поиск

(Free Improvisation, Jazz) Rutherford - Wachsmann - Guy - Iskra 1903 - 1995, FLAC (tracks+.cue), lossless

(Free Improvisation, Jazz) Rutherford - Wachsmann - Guy - Iskra 1903 - 1995, FLAC (tracks+.cue), lossless
Треклист:
Rutherford - Wachsmann - Guy - Iskra 1903
Жанр: Free Improvisation, Jazz
Страна-производитель диска: UK
Год издания: 1995
Издатель (лейбл): Maya Recordings
Номер по каталогу: MCD9502
Аудиокодек: FLAC (*.flac)
Тип рипа: tracks+.cue
Битрейт аудио: lossless
Продолжительность: 59 min.
Источник (релизер): собственный рип с оригинального диска.
Наличие сканов в содержимом раздачи: да
Треклист:
01. 903/1 18:27
02. 903/2 13:16
03. 903/3 14:48
04. 903/4 11:40
 
Лог создания рипа
Exact Audio Copy V1.0 beta 3 from 29. August 2011
EAC extraction logfile from 28. May 2013, 18:14
Rutherford - Wachsmann - Guy / Iskra 1903
Used drive : TSSTcorpCDDVDW SH-S222A Adapter: 1 ID: 0
Read mode : Secure
Utilize accurate stream : Yes
Defeat audio cache : Yes
Make use of C2 pointers : No
Read offset correction : 6
Overread into Lead-In and Lead-Out : No
Fill up missing offset samples with silence : Yes
Delete leading and trailing silent blocks : No
Null samples used in CRC calculations : Yes
Used interface : Native Win32 interface for Win NT & 2000
Gap handling : Appended to previous track
Used output format : User Defined Encoder
Selected bitrate : 896 kBit/s
Quality : High
Add ID3 tag : No
Command line compressor : C:\Tool\CD\EAC10\FLAC\FLAC.EXE
Additional command line options : -8 -V -T "ARTIST=%artist%" -T "TITLE=%title%" -T "ALBUM=%albumtitle%" -T "DATE=%year%" -T "TRACKNUMBER=%tracknr%" -T "GENRE=%genre%" -T "PERFORMER=%albuminterpret%" -T "COMPOSER=%composer%" %haslyrics%--tag-from-file=LYRICS="%lyricsfile%"%haslyrics% -T "ALBUMARTIST=%albumartist%" -T "ALBUM ARTIST=%albumartist%" -T "DISCNUMBER=%cdnumber%" -T "TOTALDISCS=%totalcds%" -T "TOTALTRACKS=%numtracks%" -T "COMMENT=EAC V1.0 beta 3, Secure Mode, Test & Copy, AccurateRip, FLAC -8" %source% -o %dest%
TOC of the extracted CD
Track | Start | Length | Start sector | End sector
---------------------------------------------------------
1 | 0:00.32 | 18:27.63 | 32 | 83119
2 | 18:28.20 | 13:16.72 | 83120 | 142891
3 | 31:45.17 | 14:48.15 | 142892 | 209506
4 | 46:33.32 | 11:40.53 | 209507 | 262059
Track 1
Filename C:\! UPLOAD\Rutherford - Wachsmann - Guy - Iskra 1903 (1995) [FLAC]\01 - 903,1.wav
Pre-gap length 0:00:02.32
Peak level 97.2 %
Extraction speed 5.6 X
Track quality 100.0 %
Test CRC FD5F72AC
Copy CRC FD5F72AC
Track not present in AccurateRip database
Copy OK
Track 2
Filename C:\! UPLOAD\Rutherford - Wachsmann - Guy - Iskra 1903 (1995) [FLAC]\02 - 903,2.wav
Pre-gap length 0:00:10.73
Peak level 68.3 %
Extraction speed 7.1 X
Track quality 100.0 %
Test CRC 9FA4DABB
Copy CRC 9FA4DABB
Track not present in AccurateRip database
Copy OK
Track 3
Filename C:\! UPLOAD\Rutherford - Wachsmann - Guy - Iskra 1903 (1995) [FLAC]\03 - 903,3.wav
Pre-gap length 0:00:07.25
Peak level 97.2 %
Extraction speed 8.2 X
Track quality 100.0 %
Test CRC 550330BC
Copy CRC 550330BC
Track not present in AccurateRip database
Copy OK
Track 4
Filename C:\! UPLOAD\Rutherford - Wachsmann - Guy - Iskra 1903 (1995) [FLAC]\04 - 903,4.wav
Pre-gap length 0:00:06.27
Peak level 83.2 %
Extraction speed 8.9 X
Track quality 100.0 %
Test CRC 6132D1CF
Copy CRC 6132D1CF
Track not present in AccurateRip database
Copy OK
None of the tracks are present in the AccurateRip database
No errors occurred
End of status report
==== Log checksum 04AC73DB92420FF9204F48AA68CD5A7D5ABFFAC0AE71065CE96115F7EC0DE093 ====
 
Содержание индексной карты (.CUE)
REM GENRE Jazz
REM DATE 1995
REM DISCID 2D0DA604
REM COMMENT "ExactAudioCopy v1.0b3"
CATALOG 0000000000000
PERFORMER "Rutherford - Wachsmann - Guy"
TITLE "Iskra 1903"
FILE "01 - 903,1.wav" WAVE
TRACK 01 AUDIO
TITLE "903/1"
PERFORMER "Rutherford - Wachsmann - Guy"
ISRC GBAJR9500071
PREGAP 00:00:32
INDEX 01 00:00:00
TRACK 02 AUDIO
TITLE "903/2"
PERFORMER "Rutherford - Wachsmann - Guy"
ISRC GBAJR9500072
INDEX 00 18:16:65
FILE "02 - 903,2.wav" WAVE
INDEX 01 00:00:00
TRACK 03 AUDIO
TITLE "903/3"
PERFORMER "Rutherford - Wachsmann - Guy"
ISRC GBAJR9500073
INDEX 00 13:09:47
FILE "03 - 903,3.wav" WAVE
INDEX 01 00:00:00
TRACK 04 AUDIO
TITLE "903/4"
PERFORMER "Rutherford - Wachsmann - Guy"
ISRC GBAJR9500074
INDEX 00 14:41:63
FILE "04 - 903,4.wav" WAVE
INDEX 01 00:00:00
Доп. информация:
Recorded on 5 October 1992 live at the Western Front, Vancouver, Canada
 
Об альбоме (Andrew Bartlett)
Bassist Barry Guy is a torrential performer, able to whiz rhythmically in a humming lightspeed glance across the strings with his bow and then, out of the spin, to pick out a grand thudding rhythmic swirl to churn his various ensembles and duos through the most complex improvisations imaginable. He's probably the finest bassist in Europe, capable of executing searing duets with Evan Parker on soprano or tenor sax, rife with both space and bracing rushes of sound blocks. Guy, likewise, can orchestrate and execute mind boggling big band charts with a delectable ease. With his current roster of band mates, Guy can find numerous fissures in which to deepen any moment's performance. That is, he slinks with either Parker or the team of violinist Wachsman and trombonist Rutherford into a maelstrom of fat cacophony, scuttle tonal linearity, and a staccato flare that outpaces any free improv being done anywhere.
 
Об альбоме (Thom Jurek / amg)
... the concert reveals itself as a study in complete communication rather than of phrases half-parsed or ideas partially realized among two of the three players.
 
Об исполнителе (группе)
Paul Rutherford formed Iskra 1903 in 1970 with Derek Bailey and Barry Guy. All three musicians had worked together in larger groups, starting off with the 1966/7 edition of the Spontaneous Music Ensemble. However, they had a strong desire to work as a percussionless trio. It’s not that they were or are anti-percussion - each of them have subsequently worked in various settings with numerous percussionists - it’s just that they felt a need for this sort of instrumentation.
Rutherford named the group after ‘Iskra’ (the Russian word for spark) which was the paper that Lenin edited before the Russian Revolution. The ‘19’ indicates 20th century music, and the ‘03’ is the number of performers. (There were occasions when the group became Iskra 1904 with the addition of Evan Parker, while Rutherford’s larger groups have been known as Iskra 1912 and Iskrastra.)
This first version of Iskra 1903 lasted about four years, during which time they were rightly considered to be one of the very finest groups around. It was, perhaps, the last long-term fixed-personnel group that Bailey worked in.
 
Состав
Paul Rutherford - trombone
Barry Guy - bass
Phil Wachsmann - violin
Any questions -> support@pro-jazz.com. По всем вопросам пишите -> support@pro-jazz.com
15:55
243
Нет комментариев. Ваш будет первым!