Вы используете незарегистрированную версию компонента "Вкладки"!

Поиск

(free jazz, norway, jazzland) Atomic - Here Comes Everybody - 2011, FLAC (tracks+.cue), lossless

Треклист:
Atomic - Here Comes Everybody

Жанр: free jazz, norway, jazzland
Год издания диска: 2011
Издатель (лейбл): jazzland
Номер по каталогу: 278 727-9
Аудиокодек: FLAC (*.flac)
Тип рипа: tracks+.cue
Битрейт аудио: lossless
Продолжительность: 00:47:46
Источник (релизер): janlugt
Наличие сканов в содержимом раздачи: да
Треклист:
01 - HCE [Here Comes Everybody]
02 - Milano
03 - Kreuzberg Variations
04 - Morphemes
05 - Panama
06 - Upflog
07 - Unity Toccata

Bass – Ingebrigt Håker Flaten
Drums – Paal Nilssen-Love
Piano – Håvard Wiik
Tenor Saxophone, Baritone Saxophone, Clarinet, Mixed By – Fredrik Ljungkvist
Trumpet – Magnus Broo
 
Лог создания рипа
Exact Audio Copy V1.0 beta 3 from 29. August 2011
EAC extraction logfile from 4. December 2011, 15:32
Atomic / Here Comes Everybody
Used drive : TSSTcorpCD/DVDW SH-W162C Adapter: 5 ID: 0
Read mode : Secure
Utilize accurate stream : Yes
Defeat audio cache : Yes
Make use of C2 pointers : No
Read offset correction : 6
Overread into Lead-In and Lead-Out : No
Fill up missing offset samples with silence : Yes
Delete leading and trailing silent blocks : No
Null samples used in CRC calculations : Yes
Used interface : Native Win32 interface for Win NT & 2000
Gap handling : Appended to previous track
Used output format : User Defined Encoder
Selected bitrate : 1024 kBit/s
Quality : High
Add ID3 tag : No
Command line compressor : C:\Program Files (x86)\Exact Audio Copy\Flac\flac.exe
Additional command line options : -8 -V -T "ARTIST=%artist%" -T "TITLE=%title%" -T "ALBUM=%albumtitle%" -T "DATE=%year%" -T "TRACKNUMBER=%tracknr%" -T "GENRE=%genre%" -T "PERFORMER=%albuminterpret%" -T "COMPOSER=%composer%" %haslyrics%--tag-from-file=LYRICS="%lyricsfile%"%haslyrics% -T "ALBUMARTIST=%albumartist%" -T "DISCNUMBER=%cdnumber%" -T "TOTALDISCS=%totalcds%" -T "TOTALTRACKS=%numtracks%" -T "COMMENT=%comment%" %source% -o %dest%
TOC of the extracted CD
Track | Start | Length | Start sector | End sector
---------------------------------------------------------
1 | 0:00.00 | 5:32.14 | 0 | 24913
2 | 5:32.14 | 6:12.57 | 24914 | 52870
3 | 11:44.71 | 7:39.50 | 52871 | 87345
4 | 19:24.46 | 6:29.09 | 87346 | 116529
5 | 25:53.55 | 8:14.21 | 116530 | 153600
6 | 34:08.01 | 4:41.41 | 153601 | 174716
7 | 38:49.42 | 9:08.50 | 174717 | 215866
Track 1
Filename C:\EAC Rips\Atomic - Here Comes Everybody (2011) FLAC\01 - HCE [Here Comes Everybody].wav
Pre-gap length 0:00:02.00
Peak level 97.0 %
Extraction speed 4.3 X
Track quality 100.0 %
Test CRC BE870DFF
Copy CRC BE870DFF
Track not present in AccurateRip database
Copy OK
Track 2
Filename C:\EAC Rips\Atomic - Here Comes Everybody (2011) FLAC\02 - Milano.wav
Pre-gap length 0:00:01.66
Peak level 97.0 %
Extraction speed 4.7 X
Track quality 100.0 %
Test CRC 3470832D
Copy CRC 3470832D
Track not present in AccurateRip database
Copy OK
Track 3
Filename C:\EAC Rips\Atomic - Here Comes Everybody (2011) FLAC\03 - Kreuzberg Variations.wav
Pre-gap length 0:00:02.65
Peak level 96.5 %
Extraction speed 5.7 X
Track quality 100.0 %
Test CRC ECD81364
Copy CRC ECD81364
Track not present in AccurateRip database
Copy OK
Track 4
Filename C:\EAC Rips\Atomic - Here Comes Everybody (2011) FLAC\04 - Morphemes.wav
Pre-gap length 0:00:02.66
Peak level 94.7 %
Extraction speed 5.5 X
Track quality 99.9 %
Test CRC 6945B69C
Copy CRC 6945B69C
Track not present in AccurateRip database
Copy OK
Track 5
Filename C:\EAC Rips\Atomic - Here Comes Everybody (2011) FLAC\05 - Panama.wav
Pre-gap length 0:00:02.65
Peak level 97.3 %
Extraction speed 6.6 X
Track quality 100.0 %
Test CRC 7C69B5AA
Copy CRC 7C69B5AA
Track not present in AccurateRip database
Copy OK
Track 6
Filename C:\EAC Rips\Atomic - Here Comes Everybody (2011) FLAC\06 - Upflog.wav
Pre-gap length 0:00:01.66
Peak level 95.5 %
Extraction speed 6.3 X
Track quality 99.9 %
Test CRC 3E7F37B2
Copy CRC 3E7F37B2
Track not present in AccurateRip database
Copy OK
Track 7
Filename C:\EAC Rips\Atomic - Here Comes Everybody (2011) FLAC\07 - Unity Toccata.wav
Peak level 97.1 %
Extraction speed 7.0 X
Track quality 100.0 %
Test CRC 0DC0F68B
Copy CRC 0DC0F68B
Track not present in AccurateRip database
Copy OK
None of the tracks are present in the AccurateRip database
No errors occurred
End of status report
---- CUETools DB Plugin V2.1.3
[CTDB TOCID: .1t_RzZjDxeRKgt8qhSSC1anzvw-] disk not present in database, Submit result: .1t_RzZjDxeRKgt8qhSSC1anzvw- has been uploaded
==== Log checksum AD3092C50D3B37CAC9B277EFC99EEC2F65DEE90AED1069977CB1730E31D63A96 ====
 
Содержание индексной карты (.CUE)
REM GENRE Jazz
REM DATE 2011
REM DISCID 470B3E07
REM COMMENT "ExactAudioCopy v1.0b3"
PERFORMER "Atomic"
TITLE "Here Comes Everybody"
FILE "01 - HCE [Here Comes Everybody].wav" WAVE
TRACK 01 AUDIO
TITLE "HCE [Here Comes Everybody]"
PERFORMER "Atomic"
ISRC CoWAA1126010
INDEX 01 00:00:00
TRACK 02 AUDIO
TITLE "Milano"
PERFORMER "Atomic"
ISRC CoWAA1126020
INDEX 00 05:30:39
FILE "02 - Milano.wav" WAVE
INDEX 01 00:00:00
TRACK 03 AUDIO
TITLE "Kreuzberg Variations"
PERFORMER "Atomic"
ISRC CoWAA1126030
INDEX 00 06:10:08
FILE "03 - Kreuzberg Variations.wav" WAVE
INDEX 01 00:00:00
TRACK 04 AUDIO
TITLE "Morphemes"
PERFORMER "Atomic"
ISRC CoWAA1126040
INDEX 00 07:37:00
FILE "04 - Morphemes.wav" WAVE
INDEX 01 00:00:00
TRACK 05 AUDIO
TITLE "Panama"
PERFORMER "Atomic"
ISRC CoWAA1126050
INDEX 00 06:26:35
FILE "05 - Panama.wav" WAVE
INDEX 01 00:00:00
TRACK 06 AUDIO
TITLE "Upflog"
PERFORMER "Atomic"
ISRC CoWAA1126060
INDEX 00 08:12:46
FILE "06 - Upflog.wav" WAVE
INDEX 01 00:00:00
FILE "07 - Unity Toccata.wav" WAVE
TRACK 07 AUDIO
TITLE "Unity Toccata"
PERFORMER "Atomic"
ISRC CoWAA1126060
INDEX 01 00:00:00
 
Об альбоме (сборнике)
The flow (or riverrun) of Atomic recordings has been a steadfast feature of the Jazzland Recordings catalogue, and Atomic have clearly expressed a will to climb to greater heights, with each new release breaking new ground. Here Comes Everybody, their latest addition, is possibly their most headstrong and challenging ever. The compositional credit for the seven tracks is split 4 to 3 between Håvard Wiik and Fredrik Ljungkvist respectively, although the heart of the collective enterprise is such that the whole sound is pure Atomic from beginning to end, with jagged arrangements, epileptic rhythms and fastswitching harmonies.
The musical complexity is not about bravado as much as it is about a mercurial dancing wit and harmonic carnivalesque energy. Echoing the James Joyce novel, Finnegans Wake, from which the title is derived, HCE (Here Comes Everybody) (Wiik) operates within a musical dream language - this is jazz surrealism, dream theory in Scandinavia. Motifs jostle back and forth, transforming into new shapes and eachother, before restating themselves again.
Milano (Ljungkvist) follows suit, chattering, babbling and skipping along, suddenly moving in a gentle plod, and then springing off again into music that bristles with hardcore creative electricity. The music flirts with the deranged outskirts of free jazz, but the tightly defined structures make it seem like impossible architecture, like an Escher drawing, filled with hovering chromatic edifices.
Kreuzberg Variations (Wiik) gently move through sculpted obelisks of sound and melody, oblique, and yet has captivating and evocative qualities, a living proof of the ingenuity of the whole Atomic project. Melodies hop and cross eachother, tracing hows, whys, blackbooks, and biotopes and urban topias that are like musical emanations from the eponymous Berlin borough through granular cityscapes across the world, side to side.
Morphemes (Wiik) makes multiple declarations of possible intent, adheres to all and none, and somehow becomes its own self-contained jazz style, referencing everything from rhumba to bebop to free jazz along the way, and gives Paal Nilsen-Love the opportunity to craft a remarkable percussive passage (not a drum solo in any conventional sense).
Panama (Ljungkvist) once again takes the stuttering structures of its predecessors, but this time follows a deconstructed mambo format, briefly sounding as though it might take on that familiar shape at any moment, but instead weaves a heady and exotic boogaloo theme through a North African souk before arriving in a Chicago speakeasy. Fredrik Ljungkvist's solo flows like smooth bourbon over the clublike chatter between restatements of the head theme. He is closely followed by Magnus Broo's equally melifluous tones playing into a harmonic variation and lilting paraphrase of the secondary theme.
Upflog (Ljungkvist) feels like the musical equivalent of watching moths fluttering between darkness and a streetlamp beam. Wiik's moody playing in conjunction with Håker Flaten's bowed bass, and Broo's sparkling bursts of trumpet, sometimes brief squeals, intertwined with Ljungkvist's sax make for an eccentric sonic painting akin to a Joan Miró piece.
Unity Toccata (Wiik) begins in a kind of musical desolation, as though it is emerging from the debris of a post-nuclear holocaust, contemplative of its surroundings as it searches for a way through. The way soon arrives, and Atomic move through the piece like a band of survivors, shaken but undeterred. Each "movement" feels like a discovery rather than a planned stop on a mapped route, as though they have uncovered it in the rubble and detritus. As always, the inimitable driving force of Flaten and Nilsen-Love underpins some fantastic soloing and counterpoints by Broo, Ljungkvist and Wiik.
The playful spirit that deftly weaves through every Atomic performance from Feet Music onwards has constantly evolved, and Here Comes Everybody stands as their greatest achievement to date.
 
коврики
Any questions -> support@pro-jazz.com. По всем вопросам пишите -> support@pro-jazz.com
19:08
182
Нет комментариев. Ваш будет первым!