Вы используете незарегистрированную версию компонента "Вкладки"!

Поиск

(Free Improvisation) Ab Baars - Time To Do My Lions [2010], FLAC (tracks+.cue), lossless

Треклист:

Ab Baars - Time To Do My Lions [2010] /
Жанр: Free Improvisation
Год издания диска: 2010
Издатель (лейбл): Wig – 17
Аудиокодек: FLAC (*.flac)
Тип рипа: tracks+.cue
Битрейт аудио: lossless
Продолжительность: 49`35
Источник (релизер): what.cd
Наличие сканов в содержимом раздачи: нет
Clarinet, Tenor Saxophone, Shakuhachi, Recorded By, Liner Notes, Composed By – Ab Baars
Треклист:
1 Day And Dream 6:09
2 Time To Do My Lions 5:25
3 Purple Petal 2:59
4 12 O'clock And All Is Well 5:13
5 Nisshin Joma 3:21
6 Gammer 3:46
7 Ritratto Del Mare A Anzio 7:03
8 Watazumi Doso 6:42
9 The Rhythm Is In The Sound 4:36
10 730 Union Street 3:16
 
Лог создания рипа
Exact Audio Copy V1.0 beta 3 from 29. August 2011
EAC extraction logfile from 23. November 2011, 2:55
Ab Baars / Time To Do My Lions
Used drive : LITE-ON DVDRW LH-20A1S Adapter: 1 ID: 1
Read mode : Secure
Utilize accurate stream : Yes
Defeat audio cache : Yes
Make use of C2 pointers : No
Read offset correction : 6
Overread into Lead-In and Lead-Out : No
Fill up missing offset samples with silence : Yes
Delete leading and trailing silent blocks : No
Null samples used in CRC calculations : Yes
Used interface : Native Win32 interface for Win NT & 2000
Gap handling : Appended to previous track
Used output format : User Defined Encoder
Selected bitrate : 1024 kBit/s
Quality : High
Add ID3 tag : No
Command line compressor : C:\Program Files\Exact Audio Copy\FLAC\FLAC.EXE
Additional command line options : -8 -V -T "ARTIST=%artist%" -T "TITLE=%title%" -T "ALBUM=%albumtitle%" -T "DATE=%year%" -T "TRACKNUMBER=%tracknr%" -T "GENRE=%genre%" -T "PERFORMER=%albuminterpret%" -T "COMPOSER=%composer%" %haslyrics%--tag-from-file=LYRICS="%lyricsfile%"%haslyrics% -T "ALBUMARTIST=%albumartist%" -T "DISCNUMBER=%cdnumber%" -T "TOTALDISCS=%totalcds%" -T "TOTALTRACKS=%numtracks%" -T "COMMENT=%comment%" %source% -o %dest%
TOC of the extracted CD
Track | Start | Length | Start sector | End sector
---------------------------------------------------------
1 | 0:00.00 | 6:14.10 | 0 | 28059
2 | 6:14.10 | 5:31.21 | 28060 | 52905
3 | 11:45.31 | 3:04.72 | 52906 | 66777
4 | 14:50.28 | 5:18.64 | 66778 | 90691
5 | 20:09.17 | 3:27.60 | 90692 | 106276
6 | 23:37.02 | 3:58.63 | 106277 | 124189
7 | 27:35.65 | 7:09.69 | 124190 | 156433
8 | 34:45.59 | 6:48.63 | 156434 | 187096
9 | 41:34.47 | 4:44.18 | 187097 | 208414
10 | 46:18.65 | 3:16.40 | 208415 | 223154
Track 1
Filename C:\EAC Rips\Ab Baars - Time To Do My Lions [FLAC]\01 - Day and Dream.wav
Pre-gap length 0:00:02.00
Peak level 98.8 %
Extraction speed 1.9 X
Track quality 99.9 %
Test CRC FCFC7FBC
Copy CRC FCFC7FBC
Track not present in AccurateRip database
Copy OK
Track 2
Filename C:\EAC Rips\Ab Baars - Time To Do My Lions [FLAC]\02 - Time To Do My Lions.wav
Pre-gap length 0:00:05.00
Peak level 98.8 %
Extraction speed 2.3 X
Track quality 100.0 %
Test CRC 4E0F9900
Copy CRC 4E0F9900
Track not present in AccurateRip database
Copy OK
Track 3
Filename C:\EAC Rips\Ab Baars - Time To Do My Lions [FLAC]\03 - Purple Petal.wav
Pre-gap length 0:00:04.77
Peak level 98.8 %
Extraction speed 2.3 X
Track quality 100.0 %
Test CRC 6D52E50F
Copy CRC 6D52E50F
Track not present in AccurateRip database
Copy OK
Track 4
Filename C:\EAC Rips\Ab Baars - Time To Do My Lions [FLAC]\04 - 12 O'Clock And All Is Well.wav
Pre-gap length 0:00:04.36
Peak level 98.8 %
Extraction speed 2.6 X
Track quality 100.0 %
Test CRC 62F51544
Copy CRC 62F51544
Track not present in AccurateRip database
Copy OK
Track 5
Filename C:\EAC Rips\Ab Baars - Time To Do My Lions [FLAC]\05 - Nisshin Joma.wav
Pre-gap length 0:00:04.29
Peak level 33.2 %
Extraction speed 2.1 X
Track quality 99.9 %
Test CRC CE3F47A2
Copy CRC CE3F47A2
Track not present in AccurateRip database
Copy OK
Track 6
Filename C:\EAC Rips\Ab Baars - Time To Do My Lions [FLAC]\06 - Gammer.wav
Pre-gap length 0:00:04.97
Peak level 98.8 %
Extraction speed 2.8 X
Track quality 100.0 %
Test CRC 81A31EC9
Copy CRC 81A31EC9
Track not present in AccurateRip database
Copy OK
Track 7
Filename C:\EAC Rips\Ab Baars - Time To Do My Lions [FLAC]\07 - Ritratto Del Mare A Anzio.wav
Pre-gap length 0:00:11.34
Peak level 98.8 %
Extraction speed 2.8 X
Track quality 99.9 %
Test CRC 3934E111
Copy CRC 3934E111
Track not present in AccurateRip database
Copy OK
Track 8
Filename C:\EAC Rips\Ab Baars - Time To Do My Lions [FLAC]\08 - Watazumi Doso.wav
Pre-gap length 0:00:06.33
Peak level 98.8 %
Extraction speed 3.4 X
Track quality 100.0 %
Test CRC EF592F46
Copy CRC EF592F46
Track not present in AccurateRip database
Copy OK
Track 9
Filename C:\EAC Rips\Ab Baars - Time To Do My Lions [FLAC]\09 - The Rhythm Is In The Sound.wav
Pre-gap length 0:00:05.70
Peak level 98.8 %
Extraction speed 3.4 X
Track quality 100.0 %
Test CRC EA2086E2
Copy CRC EA2086E2
Track not present in AccurateRip database
Copy OK
Track 10
Filename C:\EAC Rips\Ab Baars - Time To Do My Lions [FLAC]\10 - 730 Union Street.wav
Pre-gap length 0:00:07.00
Peak level 98.2 %
Extraction speed 2.4 X
Track quality 99.9 %
Test CRC AB844C18
Copy CRC AB844C18
Track not present in AccurateRip database
Copy OK
None of the tracks are present in the AccurateRip database
No errors occurred
End of status report
---- CUETools DB Plugin V2.1.3
[CTDB TOCID: relGA6zIacmieslZU7AH9FeV8jg-] disk not present in database, Submit result: relGA6zIacmieslZU7AH9FeV8jg- has been uploaded
==== Log checksum A95A119ADDDB22000A81B135DCE4573638310F62CE54C8D2AAFD6BB39E85F040 ====
 
Содержание индексной карты (.CUE)
REM GENRE Jazz
REM DATE 2010
REM DISCID 910B9F0A
REM COMMENT "ExactAudioCopy v1.0b3"
PERFORMER "Ab Baars"
TITLE "Time To Do My Lions"
FILE "01 - Day and Dream.wav" WAVE
TRACK 01 AUDIO
TITLE "Day and Dream"
PERFORMER "Ab Baars"
ISRC NLE691017001
INDEX 01 00:00:00
TRACK 02 AUDIO
TITLE "Time To Do My Lions"
PERFORMER "Ab Baars"
ISRC NLE691017002
INDEX 00 06:09:10
FILE "02 - Time To Do My Lions.wav" WAVE
INDEX 01 00:00:00
TRACK 03 AUDIO
TITLE "Purple Petal"
PERFORMER "Ab Baars"
ISRC NLE691017003
INDEX 00 05:26:38
FILE "03 - Purple Petal.wav" WAVE
INDEX 01 00:00:00
TRACK 04 AUDIO
TITLE "12 O'Clock And All Is Well"
PERFORMER "Ab Baars"
ISRC NLE691017004
INDEX 00 03:00:45
FILE "04 - 12 O'Clock And All Is Well.wav" WAVE
INDEX 01 00:00:00
TRACK 05 AUDIO
TITLE "Nisshin Joma"
PERFORMER "Ab Baars"
ISRC NLE691017005
INDEX 00 05:14:42
FILE "05 - Nisshin Joma.wav" WAVE
INDEX 01 00:00:00
TRACK 06 AUDIO
TITLE "Gammer"
PERFORMER "Ab Baars"
ISRC NLE691017006
INDEX 00 03:22:62
FILE "06 - Gammer.wav" WAVE
INDEX 01 00:00:00
TRACK 07 AUDIO
TITLE "Ritratto Del Mare A Anzio"
PERFORMER "Ab Baars"
ISRC NLE691017007
INDEX 00 03:47:37
FILE "07 - Ritratto Del Mare A Anzio.wav" WAVE
INDEX 01 00:00:00
TRACK 08 AUDIO
TITLE "Watazumi Doso"
PERFORMER "Ab Baars"
ISRC NLE691017008
INDEX 00 07:03:44
FILE "08 - Watazumi Doso.wav" WAVE
INDEX 01 00:00:00
TRACK 09 AUDIO
TITLE "The Rhythm Is In The Sound"
PERFORMER "Ab Baars"
ISRC NLE691017009
INDEX 00 06:43:10
FILE "09 - The Rhythm Is In The Sound.wav" WAVE
INDEX 01 00:00:00
TRACK 10 AUDIO
TITLE "730 Union Street"
PERFORMER "Ab Baars"
ISRC NLE691017010
INDEX 00 04:37:18
FILE "10 - 730 Union Street.wav" WAVE
INDEX 01 00:00:00
другие релизы
Any questions -> support@pro-jazz.com. По всем вопросам пишите -> support@pro-jazz.com
19:07
198
Нет комментариев. Ваш будет первым!