Вы используете незарегистрированную версию компонента "Вкладки"!

Поиск

(Free Jazz, Noise, Avant-Garde, Experimental) Puma (Gard Nilssen, Stian Westerhus, Oystein Moen) - Discotheque Bitpunching - 2008, FLAC (tracks+.cue) lossless

Треклист:
Puma (Gard Nilssen, Stian Westerhus, Oystein Moen) / Discotheque Bitpunching
Жанр: Free Jazz, Noise, Avantgarde, Experimental
Страна-производитель диска: Norway
Год издания диска: 2008
Издатель (лейбл): Bolage
Номер по каталогу: BLGCD004
Аудио кодек: FLAC (*.flac)
Тип рипа: tracks+.cue
Битрейт аудио: lossless
Продолжительность: 46:18
Источник (релизер): what.cd (zopatista)
Наличие сканов в содержимом раздачи: нет
Треклист:
01 Gunmetal
02 Discotheque Bitpunching
03 (... And So Wept) The Boxer
04 Scission
05 Resister / Receiver
06 Sub Rosa
07 All Good, Makes You Bleed
08 Torn
09 Caper
10 Knell
 
Лог создания рипа
X Lossless Decoder version 20101010 (123.3)
XLD extraction logfile from 2010-10-14 12:36:05 +0200
Puma / Discotheque Bitpunching
Used drive : HL-DT-ST DVDRW GSA-S10N (revision AP12)
Use cdparanoia mode : YES (CDParanoia III 10.2 engine)
Disable audio cache : OK for the drive with cache less than 2750KB
Make use of C2 pointers : NO
Read offset correction : 667
Max retry count : 100
Gap status : Analyzed, Appended
TOC of the extracted CD
Track | Start | Length | Start sector | End sector
---------------------------------------------------------
1 | 00:00:00 | 06:53:01 | 0 | 30975
2 | 06:53:01 | 01:56:51 | 30976 | 39726
3 | 08:49:52 | 05:59:72 | 39727 | 66723
4 | 14:49:49 | 04:01:56 | 66724 | 84854
5 | 18:51:30 | 02:59:69 | 84855 | 98348
6 | 21:51:24 | 04:26:01 | 98349 | 118299
7 | 26:17:25 | 06:20:21 | 118300 | 146820
8 | 32:37:46 | 03:15:14 | 146821 | 161459
9 | 35:52:60 | 04:21:10 | 161460 | 181044
10 | 40:13:70 | 06:03:70 | 181045 | 208339
All Tracks
Album gain : -9.15 dB
Peak : 0.992310
Track 01
Filename : /Unsorted MP3/00 In Progress/Puma - 2008 - Discotheque Bitpunching/01 - Gunmetal.flac
Pre-gap length : 00:02:00
Track gain : -6.99 dB
Peak : 0.992249
CRC32 hash (test run) : C48732C2
CRC32 hash : C48732C2
CRC32 hash (skip zero) : CE9B0D75
AccurateRip signature : EE8D3A48
->Accurately ripped! (confidence 1)
Statistics
Read error : 0
Skipped (treated as error) : 0
Edge jitter error (maybe fixed) : 0
Atom jitter error (maybe fixed) : 0
Drift error (maybe fixed) : 0
Dropped bytes error (maybe fixed) : 0
Duplicated bytes error (maybe fixed) : 0
Inconsistency in error sectors : 0
Track 02
Filename : /Unsorted MP3/00 In Progress/Puma - 2008 - Discotheque Bitpunching/02 - Discotheque Bitpunching.flac
Track gain : -7.70 dB
Peak : 0.992188
CRC32 hash (test run) : 60D8DA51
CRC32 hash : 60D8DA51
CRC32 hash (skip zero) : D7ED98C1
AccurateRip signature : E9D00CD0
->Accurately ripped! (confidence 1)
Statistics
Read error : 0
Skipped (treated as error) : 0
Edge jitter error (maybe fixed) : 0
Atom jitter error (maybe fixed) : 0
Drift error (maybe fixed) : 0
Dropped bytes error (maybe fixed) : 0
Duplicated bytes error (maybe fixed) : 0
Inconsistency in error sectors : 0
Track 03
Filename : /Unsorted MP3/00 In Progress/Puma - 2008 - Discotheque Bitpunching/03 - (... And So Wept) The Boxer.flac
Track gain : -0.74 dB
Peak : 0.717285
CRC32 hash (test run) : FB04B8A9
CRC32 hash : FB04B8A9
CRC32 hash (skip zero) : 2099379B
AccurateRip signature : C349933E
->Accurately ripped! (confidence 1)
Statistics
Read error : 0
Skipped (treated as error) : 0
Edge jitter error (maybe fixed) : 0
Atom jitter error (maybe fixed) : 0
Drift error (maybe fixed) : 0
Dropped bytes error (maybe fixed) : 0
Duplicated bytes error (maybe fixed) : 0
Inconsistency in error sectors : 0
Track 04
Filename : /Unsorted MP3/00 In Progress/Puma - 2008 - Discotheque Bitpunching/04 - Scission.flac
Track gain : -5.79 dB
Peak : 0.992249
CRC32 hash (test run) : 41C3CF6B
CRC32 hash : 41C3CF6B
CRC32 hash (skip zero) : B0950407
AccurateRip signature : FDA5A157
->Accurately ripped! (confidence 1)
Statistics
Read error : 0
Skipped (treated as error) : 0
Edge jitter error (maybe fixed) : 0
Atom jitter error (maybe fixed) : 0
Drift error (maybe fixed) : 0
Dropped bytes error (maybe fixed) : 0
Duplicated bytes error (maybe fixed) : 0
Inconsistency in error sectors : 0
Track 05
Filename : /Unsorted MP3/00 In Progress/Puma - 2008 - Discotheque Bitpunching/05 - Resister пјЏ Reciever.flac
Track gain : -9.48 dB
Peak : 0.992310
CRC32 hash (test run) : EB3676C2
CRC32 hash : EB3676C2
CRC32 hash (skip zero) : D74E9562
AccurateRip signature : 30366AE8
->Accurately ripped! (confidence 1)
Statistics
Read error : 0
Skipped (treated as error) : 0
Edge jitter error (maybe fixed) : 0
Atom jitter error (maybe fixed) : 0
Drift error (maybe fixed) : 0
Dropped bytes error (maybe fixed) : 0
Duplicated bytes error (maybe fixed) : 0
Inconsistency in error sectors : 0
Track 06
Filename : /Unsorted MP3/00 In Progress/Puma - 2008 - Discotheque Bitpunching/06 - Sub Rosa.flac
Track gain : 0.99 dB
Peak : 0.887390
CRC32 hash (test run) : 6729BC89
CRC32 hash : 6729BC89
CRC32 hash (skip zero) : ECB04BFD
AccurateRip signature : 330BCD09
->Accurately ripped! (confidence 1)
Statistics
Read error : 0
Skipped (treated as error) : 0
Edge jitter error (maybe fixed) : 0
Atom jitter error (maybe fixed) : 0
Drift error (maybe fixed) : 0
Dropped bytes error (maybe fixed) : 0
Duplicated bytes error (maybe fixed) : 0
Inconsistency in error sectors : 0
Track 07
Filename : /Unsorted MP3/00 In Progress/Puma - 2008 - Discotheque Bitpunching/07 - All Good, Makes You Bleed.flac
Track gain : -5.22 dB
Peak : 0.992188
CRC32 hash (test run) : 3E7C28AC
CRC32 hash : 3E7C28AC
CRC32 hash (skip zero) : 1ED46B27
AccurateRip signature : 8105BE94
->Accurately ripped! (confidence 1)
Statistics
Read error : 0
Skipped (treated as error) : 0
Edge jitter error (maybe fixed) : 0
Atom jitter error (maybe fixed) : 0
Drift error (maybe fixed) : 0
Dropped bytes error (maybe fixed) : 0
Duplicated bytes error (maybe fixed) : 0
Inconsistency in error sectors : 0
Track 08
Filename : /Unsorted MP3/00 In Progress/Puma - 2008 - Discotheque Bitpunching/08 - Torn.flac
Track gain : -11.23 dB
Peak : 0.992279
CRC32 hash (test run) : C0C027A9
CRC32 hash : C0C027A9
CRC32 hash (skip zero) : 86A7D5FA
AccurateRip signature : 0F35018D
->Accurately ripped! (confidence 1)
Statistics
Read error : 0
Skipped (treated as error) : 0
Edge jitter error (maybe fixed) : 0
Atom jitter error (maybe fixed) : 0
Drift error (maybe fixed) : 0
Dropped bytes error (maybe fixed) : 0
Duplicated bytes error (maybe fixed) : 0
Inconsistency in error sectors : 0
Track 09
Filename : /Unsorted MP3/00 In Progress/Puma - 2008 - Discotheque Bitpunching/09 - Caper.flac
Track gain : -10.44 dB
Peak : 0.992249
CRC32 hash (test run) : 79002247
CRC32 hash : 79002247
CRC32 hash (skip zero) : 84B698C9
AccurateRip signature : F610C40C
->Accurately ripped! (confidence 1)
Statistics
Read error : 0
Skipped (treated as error) : 0
Edge jitter error (maybe fixed) : 0
Atom jitter error (maybe fixed) : 0
Drift error (maybe fixed) : 0
Dropped bytes error (maybe fixed) : 0
Duplicated bytes error (maybe fixed) : 0
Inconsistency in error sectors : 0
Track 10
Filename : /Unsorted MP3/00 In Progress/Puma - 2008 - Discotheque Bitpunching/10 - Knell.flac
Track gain : -6.20 dB
Peak : 0.992096
CRC32 hash (test run) : 67DAAC14
CRC32 hash : 67DAAC14
CRC32 hash (skip zero) : 38AA0A26
AccurateRip signature : 5D81C29B
->Accurately ripped! (confidence 1)
Statistics
Read error : 0
Skipped (treated as error) : 0
Edge jitter error (maybe fixed) : 0
Atom jitter error (maybe fixed) : 0
Drift error (maybe fixed) : 0
Dropped bytes error (maybe fixed) : 0
Duplicated bytes error (maybe fixed) : 0
Inconsistency in error sectors : 0
No errors occurred
End of status report
 
Содержание индексной карты (.CUE)
TITLE "Discotheque Bitpunching"
PERFORMER "Puma"
REM DATE "2008-04-29"
REM DISCID 7D0AD90A
FILE "01 - Gunmetal.wav" WAVE
TRACK 01 AUDIO
TITLE "Gunmetal"
ISRC NOCZL0804010
INDEX 01 00:00:00
FILE "02 - Discotheque Bitpunching.wav" WAVE
TRACK 02 AUDIO
TITLE "Discotheque Bitpunching"
ISRC NOCZL0804020
INDEX 01 00:00:00
FILE "03 - (... And So Wept) The Boxer.wav" WAVE
TRACK 03 AUDIO
TITLE "(... And So Wept) The Boxer"
ISRC NOCZL0804030
INDEX 01 00:00:00
FILE "04 - Scission.wav" WAVE
TRACK 04 AUDIO
TITLE "Scission"
ISRC NOCZL0804040
INDEX 01 00:00:00
FILE "05 - Resister _ Reciever.wav" WAVE
TRACK 05 AUDIO
TITLE "Resister / Reciever"
ISRC NOCZL0804050
INDEX 01 00:00:00
FILE "06 - Sub Rosa.wav" WAVE
TRACK 06 AUDIO
TITLE "Sub Rosa"
ISRC NOCZL0804060
INDEX 01 00:00:00
FILE "07 - All Good, Makes You Bleed.wav" WAVE
TRACK 07 AUDIO
TITLE "All Good, Makes You Bleed"
ISRC NOCZL0804070
INDEX 01 00:00:00
FILE "08 - Torn.wav" WAVE
TRACK 08 AUDIO
TITLE "Torn"
ISRC NOCZL0804080
INDEX 01 00:00:00
FILE "09 - Caper.wav" WAVE
TRACK 09 AUDIO
TITLE "Caper"
ISRC NOCZL0804090
INDEX 01 00:00:00
FILE "10 - Knell.wav" WAVE
TRACK 10 AUDIO
TITLE "Knell"
ISRC NOCZL0804100
INDEX 01 00:00:00
Доп. информация: Recorded in January 2008 at Audiopol Studio.
 
Об альбоме (сборнике)
Since the release of their debut album Isolationism last year, the band has been touring extensively. Playing live has payed off. As a second album, Discotheque Bitpunching is everything you could wish for: it’s sharper and more to the point than their debut, yet richer in colour and texture.
 
Состав
Executive Producer - Havard Staubo , Tord Ronning Krogtoft
Mastered By - Morten Stendahl
Mixed By - Audun Kleive
Performer - Gard Nilssen , Stian Westerhus , Oystein Moen
Producer, Mixed By - Puma
По всем вопросам пишите личное сообщение пользователю M0p94ok.
08:55
135
Нет комментариев. Ваш будет первым!