Вы используете незарегистрированную версию компонента "Вкладки"!

Поиск

(Avant-Garde, Modern Composition) Lukas Ligeti - Mystery System - 2004, FLAC (tracks+.cue) lossless

Треклист:
Lukas Ligeti / Mystery System
Жанр: Avant-Garde, Modern Composition
Страна-производитель диска: US
Год издания диска: 2004
Издатель (лейбл): Tzadik
Номер по каталогу: TZ 7099
Страна: US
Аудио кодек: FLAC (*.flac)
Тип рипа: tracks+.cue
Битрейт аудио: lossless
Продолжительность: 52:29
Источник (релизер): Demonoid
Наличие сканов в содержимом раздачи: да
Треклист:
1 Pattern Transformation, for 4 players on 2 marimbas Ligeti 4:20
2 Moving Houses, for string quartet Ligeti 14:04
3 Independence, for percussionquartet Ligeti 16:55
4 New York to Neptune, for string quartet & drum machine Ligeti 1:46
5 Delta Space, for pianist, Yamaha Disklavier & sampler Ligeti 15:40
 
Лог создания рипа
X Lossless Decoder version 20110212 (127.0)
XLD extraction logfile from 2011-02-18 14:24:04 +0100
Lukas Ligeti / Mystery System
Used drive : MATSHITA DVD-R UJ-857 (revision HAEA)
Ripper mode : CDParanoia III 10.2
Disable audio cache : OK for the drive with a cache less than 2750KiB
Make use of C2 pointers : YES
Read offset correction : 102
Max retry count : 100
Gap status : Analyzed, Not appended
TOC of the extracted CD
Track | Start | Length | Start sector | End sector
---------------------------------------------------------
1 | 00:00:00 | 04:20:31 | 0 | 19530
2 | 04:20:31 | 14:04:53 | 19531 | 82883
3 | 18:25:09 | 16:55:55 | 82884 | 159063
4 | 35:20:64 | 01:46:48 | 159064 | 167061
5 | 37:07:37 | 15:40:59 | 167062 | 237620
All Tracks
Album gain : -7.28 dB
Peak : 0.988647
Statistics
Read error : 0
Skipped (treated as error) : 0
Edge jitter error (maybe fixed) : 0
Atom jitter error (maybe fixed) : 0
Drift error (maybe fixed) : 0
Dropped bytes error (maybe fixed) : 0
Duplicated bytes error (maybe fixed) : 0
Track 01
Filename : /Users/oliver_t71/Music/MyTorrents/LUKAS_LIGETI_MYSTERY_SYSTEM_TZADIK_COMPOSER_SERIES_2004_[FLAC+CUE+LOG]/01 Lukas Ligeti - Pattern Transformation.aiff
/Users/oliver_t71/Music/MyTorrents/LUKAS_LIGETI_MYSTERY_SYSTEM_TZADIK_COMPOSER_SERIES_2004_[FLAC+CUE+LOG]/01 Lukas Ligeti - Pattern Transformation.flac
Pre-gap length : 00:02:00
Track gain : -7.38 dB
Peak : 0.988617
CRC32 hash (test run) : A12CA97B
CRC32 hash : A12CA97B
CRC32 hash (skip zero) : B8992854
Statistics
Read error : 0
Skipped (treated as error) : 0
Edge jitter error (maybe fixed) : 0
Atom jitter error (maybe fixed) : 0
Drift error (maybe fixed) : 0
Dropped bytes error (maybe fixed) : 0
Duplicated bytes error (maybe fixed) : 0
Inconsistency in error sectors : 0
Track 02
Filename : /Users/oliver_t71/Music/MyTorrents/LUKAS_LIGETI_MYSTERY_SYSTEM_TZADIK_COMPOSER_SERIES_2004_[FLAC+CUE+LOG]/02 Lukas Ligeti - Moving Houses.aiff
/Users/oliver_t71/Music/MyTorrents/LUKAS_LIGETI_MYSTERY_SYSTEM_TZADIK_COMPOSER_SERIES_2004_[FLAC+CUE+LOG]/02 Lukas Ligeti - Moving Houses.flac
Pre-gap length : 00:05:45
Track gain : -5.67 dB
Peak : 0.988647
CRC32 hash (test run) : 85F77A48
CRC32 hash : 85F77A48
CRC32 hash (skip zero) : F7032498
Statistics
Read error : 0
Skipped (treated as error) : 0
Edge jitter error (maybe fixed) : 0
Atom jitter error (maybe fixed) : 0
Drift error (maybe fixed) : 0
Dropped bytes error (maybe fixed) : 0
Duplicated bytes error (maybe fixed) : 0
Inconsistency in error sectors : 0
Track 03
Filename : /Users/oliver_t71/Music/MyTorrents/LUKAS_LIGETI_MYSTERY_SYSTEM_TZADIK_COMPOSER_SERIES_2004_[FLAC+CUE+LOG]/03 Lukas Ligeti - Independence.aiff
/Users/oliver_t71/Music/MyTorrents/LUKAS_LIGETI_MYSTERY_SYSTEM_TZADIK_COMPOSER_SERIES_2004_[FLAC+CUE+LOG]/03 Lukas Ligeti - Independence.flac
Pre-gap length : 00:03:61
Track gain : -6.69 dB
Peak : 0.988647
CRC32 hash (test run) : 97B45926
CRC32 hash : 97B45926
CRC32 hash (skip zero) : F169B976
Statistics
Read error : 0
Skipped (treated as error) : 0
Edge jitter error (maybe fixed) : 0
Atom jitter error (maybe fixed) : 0
Drift error (maybe fixed) : 0
Dropped bytes error (maybe fixed) : 0
Duplicated bytes error (maybe fixed) : 0
Inconsistency in error sectors : 0
Track 04
Filename : /Users/oliver_t71/Music/MyTorrents/LUKAS_LIGETI_MYSTERY_SYSTEM_TZADIK_COMPOSER_SERIES_2004_[FLAC+CUE+LOG]/04 Lukas Ligeti - New York to Neptune.aiff
/Users/oliver_t71/Music/MyTorrents/LUKAS_LIGETI_MYSTERY_SYSTEM_TZADIK_COMPOSER_SERIES_2004_[FLAC+CUE+LOG]/04 Lukas Ligeti - New York to Neptune.flac
Pre-gap length : 00:03:08
Track gain : -7.12 dB
Peak : 0.988617
CRC32 hash (test run) : 5F1E271E
CRC32 hash : 5F1E271E
CRC32 hash (skip zero) : FF4101E1
Statistics
Read error : 0
Skipped (treated as error) : 0
Edge jitter error (maybe fixed) : 0
Atom jitter error (maybe fixed) : 0
Drift error (maybe fixed) : 0
Dropped bytes error (maybe fixed) : 0
Duplicated bytes error (maybe fixed) : 0
Inconsistency in error sectors : 0
Track 05
Filename : /Users/oliver_t71/Music/MyTorrents/LUKAS_LIGETI_MYSTERY_SYSTEM_TZADIK_COMPOSER_SERIES_2004_[FLAC+CUE+LOG]/05 Lukas Ligeti - Delta Space.aiff
/Users/oliver_t71/Music/MyTorrents/LUKAS_LIGETI_MYSTERY_SYSTEM_TZADIK_COMPOSER_SERIES_2004_[FLAC+CUE+LOG]/05 Lukas Ligeti - Delta Space.flac
Pre-gap length : 00:06:07
Track gain : -8.31 dB
Peak : 0.988647
CRC32 hash (test run) : 666DC0AC
CRC32 hash : 666DC0AC
CRC32 hash (skip zero) : 2C5FF7C1
Statistics
Read error : 0
Skipped (treated as error) : 0
Edge jitter error (maybe fixed) : 0
Atom jitter error (maybe fixed) : 0
Drift error (maybe fixed) : 0
Dropped bytes error (maybe fixed) : 0
Duplicated bytes error (maybe fixed) : 0
Inconsistency in error sectors : 0
No errors occurred
End of status report
 
Содержание индексной карты (.CUE)
TITLE "Mystery System"
PERFORMER "Lukas Ligeti"
REM GENRE "Avantgarde"
REM DATE "2004"
REM DISCNUMBER 1
REM TOTALDISCS 1
REM DISCID 2B0C6005
FILE "01 Lukas Ligeti - Pattern Transformation.wav" WAVE
TRACK 01 AUDIO
TITLE "Pattern Transformation"
SONGWRITER "Lukas Ligeti"
REM COMMENT "Ripped by XLD Version Version 20110212 (127.0)"
INDEX 01 00:00:00
TRACK 02 AUDIO
TITLE "Moving Houses"
SONGWRITER "Lukas Ligeti"
INDEX 00 04:14:61
FILE "02 Lukas Ligeti - Moving Houses.wav" WAVE
INDEX 01 00:00:00
TRACK 03 AUDIO
TITLE "Independence"
SONGWRITER "Lukas Ligeti"
INDEX 00 14:00:67
FILE "03 Lukas Ligeti - Independence.wav" WAVE
INDEX 01 00:00:00
TRACK 04 AUDIO
TITLE "New York to Neptune"
SONGWRITER "Lukas Ligeti"
INDEX 00 16:52:47
FILE "04 Lukas Ligeti - New York to Neptune.wav" WAVE
INDEX 01 00:00:00
TRACK 05 AUDIO
TITLE "Delta Space"
SONGWRITER "Lukas Ligeti"
INDEX 00 01:40:41
FILE "05 Lukas Ligeti - Delta Space.wav" WAVE
INDEX 01 00:00:00
 
Лог проверки качества
d:\>d:\aucdtect -d/-m0 d:\zzz\*.wav
auCDtect: CD records authenticity detector, version 0.8.2
Copyright (c) 2004 Oleg Berngardt. All rights reserved.
Copyright (c) 2004 Alexander Djourik. All rights reserved.
------------------------------------------------------------
Processing file: [01. Pattern Transformation.wav]
------------------------------------------------------------
This track looks like CDDA with probability 100%
------------------------------------------------------------
Processing file: [02. Moving Houses.wav]
------------------------------------------------------------
This track looks like CDDA with probability 94%
------------------------------------------------------------
Processing file: [03. Independence.wav]
------------------------------------------------------------
This track looks like CDDA with probability 100%
------------------------------------------------------------
Processing file: [04. New York to Neptune.wav]
------------------------------------------------------------
This track looks like CDDA with probability 58%
------------------------------------------------------------
Processing file: [05. Delta Space.wav]
------------------------------------------------------------
This track looks like CDDA with probability 100%
------------------------------------------------------------
Final Conclusion:
------------------------------------------------------------
These tracks looks like CDDA with probability 100%
 
Скриншот спектра частот
Доп. информация:
 
AMG Review
Recordings from Budapest, Paris, and New York City are combined on this program of compositional undertakings from Lukas Ligeti. What comes across as a refined classical atmosphere -- at least on a superficial impression -- finally gives way to something more freaky with the final piece, a lengthy encounter between a hungry sampler and pianist Kathleen Supove entitled "Delta Space." Most of the CD consists of an epic sandwiching of a string quartet, written in the '90s and amended the following decade, in between two pieces crafted for the Amadinda Percussion Group of Hungary in which the keyboard percussion music of Uganda has been influential. Ligeti, a percussionist himself, does not play anywhere on this recording. African music is one of his major interests, but his liner notes indicate a wider inspirational reach in the string quartet. There are listeners who claim they cannot hear what the composer says are echoes of electric Miles Davis and "Eleanor Rigby," even if the disc is held flat against their ears, but no matter. Of major importance in this composer's work is that these seemingly required and engagingly rampant diverse interests play out with the smoothness of an ancient tapestry rather than coming across, as they sometimes do, like a bunch of maggots finishing off the corpse of whatever genres. "Delta Space" is lots of fun, a quarter of an hour that rushes by with limitless imagination. Yet the real masterpieces of this collection are the pair of percussion pieces. Linked by the luxury of the performing group's intense interest as well as several important connecting ideas, the simply titled "Pattern Transformation" and "Independence" present a deep well of ideas and textures. Each listen is something like the vagabond approaching the well with a deep hat to drink out of. These performances are indeed refreshing, the later "Independence" taking on a more ambitious length and series of developments. With both pieces, deep concentration will reward the listener with new, seemingly cached secrets upon each repeat.
 
Состав
Amadinda Percussion Group Ensemble, Performer
Károly Bojtos Percussion
Chien-Yin Chen Photography
Heung-Heung Chin Design
Heung-Heung "Chippy" Chin Design
Ty Cumbie Cover Image
Zsuzsa Dvorák Editing
Ethel Performer, String Quartet
Ralph Farris Viola
Aurél Holló Percussion
Scott Hull Mastering
Dorothy Lawson Cello
Bruno Letort Engineer, Producer, Recording
Lukas Ligeti Composer, Liner Notes, Producer
Lawrence Manchester Engineer, Recording
Jesse Pynigar Assistant, Recording
Zoltán Rácz Percussion
Todd Reynolds Violin
Stefan Rodesco Recording, Viola, Violin
Mary Rowell Violin
Sheldon Steiger Engineer, Mixing, Recording
Kazunori Sugiyama Associate Producer
Kathleen Supove Piano
Domonkos Tímár Engineer, Recording
Zoltán Váczi Percussion
Denys Viollet Cello
Istvan Zakarias Engineer, Recording
John Zorn Executive Producer
Any questions -> support@pro-jazz.com. По всем вопросам пишите -> support@pro-jazz.com
08:56
150
Нет комментариев. Ваш будет первым!