Поиск

(Free Jazz) Noah Howard Quartet - In Concert - 1997, FLAC (image+.cue), lossless

(Free Jazz) Noah Howard Quartet - In Concert - 1997, FLAC (image+.cue), lossless
Треклист:
Noah Howard Quartet / In Concert
Жанр: Free Jazz
Страна-производитель диска: US
Год издания: 1997
Издатель (лейбл): Cadence Jazz Records
Номер по каталогу: CJR 1084
Аудиокодек: FLAC (*.flac)
Тип рипа: image+.cue
Битрейт аудио: lossless
Продолжительность: 67:58
Источник (релизер): cd
Наличие сканов в содержимом раздачи: нет
Треклист:
1 The Blessing 12:23
2 Schizophrenic Blues 9:33
3 Afro Blue (Composed By – John Coltrane) 7:32
4 The Fugitive (Part 1) 7:07
5 Transition Flight 2:25
6 The Fugitive (Part 2) / Sunrise / Lovers 5:58
7 We Remember John 11:24
8 We Came From The Mountain (Composed By – Traditional) 11:36
 
Лог создания рипа
Exact Audio Copy V1.0 beta 2 from 29. April 2011
EAC extraction logfile from 28. November 2012, 13:11
Noah Howard Quartet / In Concert
Used drive : Optiarc DVD RW AD-7170A Adapter: 0 ID: 0
Read mode : Secure
Utilize accurate stream : Yes
Defeat audio cache : Yes
Make use of C2 pointers : No
Read offset correction : 48
Overread into Lead-In and Lead-Out : No
Fill up missing offset samples with silence : Yes
Delete leading and trailing silent blocks : No
Null samples used in CRC calculations : Yes
Used interface : Native Win32 interface for Win NT & 2000
Used output format : User Defined Encoder
Selected bitrate : 320 kBit/s
Quality : High
Add ID3 tag : No
Command line compressor : C:\Program Files\Exact Audio Copy\Flac\flac.exe
Additional command line options : -V -8 -T "Date=%year%" -T "Genre=%genre%" %source%
TOC of the extracted CD
Track | Start | Length | Start sector | End sector
---------------------------------------------------------
1 | 0:00.00 | 12:23.16 | 0 | 55740
2 | 12:23.16 | 9:32.62 | 55741 | 98702
3 | 21:56.03 | 7:32.20 | 98703 | 132622
4 | 29:28.23 | 7:06.44 | 132623 | 164616
5 | 36:34.67 | 2:24.55 | 164617 | 175471
6 | 38:59.47 | 5:58.25 | 175472 | 202346
7 | 44:57.72 | 11:24.22 | 202347 | 253668
8 | 56:22.19 | 11:36.15 | 253669 | 305883
Range status and errors
Selected range
Filename K:\ЕАС\Noah Howard Quartet - In Concert.wav
Peak level 92.5 %
Extraction speed 2.1 X
Range quality 100.0 %
Test CRC A984CBC4
Copy CRC A984CBC4
Copy OK
No errors occurred
AccurateRip summary
Track 1 not present in database
Track 2 not present in database
Track 3 not present in database
Track 4 not present in database
Track 5 not present in database
Track 6 not present in database
Track 7 not present in database
Track 8 not present in database
None of the tracks are present in the AccurateRip database
End of status report
==== Log checksum 096ED0F02410D9596961015BC72E4EF903A8E8215B8383A86B65AB040A618A07 ====
 
Содержание индексной карты (.CUE)
REM GENRE Jazz
REM DATE 1997
REM DISCID 760FEE08
REM COMMENT "ExactAudioCopy v1.0b2"
PERFORMER "Noah Howard Quartet"
TITLE "In Concert"
FILE "Noah Howard Quartet - In Concert.flac" WAVE
TRACK 01 AUDIO
TITLE "The Blessing"
PERFORMER "Noah Howard Quartet"
ISRC 000000000000
INDEX 01 00:00:00
TRACK 02 AUDIO
TITLE "Schizophrenic Blues"
PERFORMER "Noah Howard Quartet"
ISRC 000000000000
INDEX 01 12:23:16
TRACK 03 AUDIO
TITLE "Afro Blue"
PERFORMER "Noah Howard Quartet"
ISRC 000000000000
INDEX 01 21:56:03
TRACK 04 AUDIO
TITLE "The Fugitive Part 1"
PERFORMER "Noah Howard Quartet"
ISRC 000000000000
INDEX 01 29:28:23
TRACK 05 AUDIO
TITLE "Transition Flight"
PERFORMER "Noah Howard Quartet"
ISRC 000000000000
INDEX 01 36:34:67
TRACK 06 AUDIO
TITLE "The Fugitive Part 2/Sunrise/Lovers"
PERFORMER "Noah Howard Quartet"
ISRC 000000000000
INDEX 01 38:59:47
TRACK 07 AUDIO
TITLE "We Remember John"
PERFORMER "Noah Howard Quartet"
ISRC 000000000000
INDEX 01 44:57:72
TRACK 08 AUDIO
TITLE "We Come From The Mountain"
PERFORMER "Noah Howard Quartet"
ISRC 000000000000
INDEX 01 56:22:19
 
Состав
Bass – James Lewis
Drums – Calyer Duncan
Piano – Bobby Few
Saxophone, Music By, Composed By – Noah Howard
По всем вопросам пишите личное сообщение пользователю M0p94ok.
04:53
394
Нет комментариев. Ваш будет первым!