Вы используете незарегистрированную версию компонента "Вкладки"!

Поиск

(Contemporary Jazz, Free Jazz) Billy Bang Quintet Featuring Frank Lowe - Above & Beyond: An Evening In Grand Rapids - 2007, FLAC (image+.cue), lossless

(Contemporary Jazz, Free Jazz) Billy Bang Quintet Featuring Frank Lowe - Above & Beyond: An Evening In Grand Rapids - 2007, FLAC (image+.cue), lossless
Треклист:
Billy Bang Quintet Featuring Frank Lowe / Above & Beyond: An Evening In Grand Rapids
Жанр: Contemporary Jazz, Free Jazz
Страна-производитель диска: Canada
Год издания: 2007
Издатель (лейбл): Justin Time
Номер по каталогу: JUST 208-2
Аудиокодек: FLAC (*.flac)
Тип рипа: image+.cue
Битрейт аудио: lossless
Продолжительность: 64:75
Источник (релизер): cd
Наличие сканов в содержимом раздачи: нет
Треклист:
1 Silent Observation 18:08
2 Nothing But Love 10:01
3 Dark Silhouette 24:00
4 At Play In The Fields Of The Lord 13:18
 
Лог создания рипа
Exact Audio Copy V1.0 beta 2 from 29. April 2011
EAC extraction logfile from 28. November 2012, 15:00
Billy Bang Quintet / Above & Beyond
Used drive : Optiarc DVD RW AD-7170A Adapter: 0 ID: 0
Read mode : Secure
Utilize accurate stream : Yes
Defeat audio cache : Yes
Make use of C2 pointers : No
Read offset correction : 48
Overread into Lead-In and Lead-Out : No
Fill up missing offset samples with silence : Yes
Delete leading and trailing silent blocks : No
Null samples used in CRC calculations : Yes
Used interface : Native Win32 interface for Win NT & 2000
Used output format : User Defined Encoder
Selected bitrate : 320 kBit/s
Quality : High
Add ID3 tag : No
Command line compressor : C:\Program Files\Exact Audio Copy\Flac\flac.exe
Additional command line options : -V -8 -T "Date=%year%" -T "Genre=%genre%" %source%
TOC of the extracted CD
Track | Start | Length | Start sector | End sector
---------------------------------------------------------
1 | 0:00.00 | 18:05.45 | 0 | 81419
2 | 18:05.45 | 10:01.10 | 81420 | 126504
3 | 28:06.55 | 23:23.10 | 126505 | 231739
4 | 51:29.65 | 13:25.59 | 231740 | 292173
Range status and errors
Selected range
Filename K:\ЕАС\Billy Bang Quintet - Above & Beyond.wav
Peak level 99.9 %
Extraction speed 1.9 X
Range quality 99.9 %
Test CRC 60F0D44D
Copy CRC 60F0D44D
Copy OK
No errors occurred
AccurateRip summary
Track 1 accurately ripped (confidence 4) [32E87FE6] (AR v1)
Track 2 accurately ripped (confidence 4) [EAFC4BB1] (AR v1)
Track 3 accurately ripped (confidence 4) [03DB84FD] (AR v1)
Track 4 accurately ripped (confidence 4) [2A147D00] (AR v1)
All tracks accurately ripped
End of status report
==== Log checksum F6949FA7207C6830378A06AD620F2B9F5E48B356ADE165306FB56ADECF190B81 ====
 
Содержание индексной карты (.CUE)
REM GENRE Jazz
REM DATE 2007
REM DISCID 360F3704
REM COMMENT "ExactAudioCopy v1.0b2"
PERFORMER "Billy Bang Quintet"
TITLE "Above & Beyond"
FILE "Billy Bang Quintet - Above & Beyond.flac" WAVE
TRACK 01 AUDIO
TITLE "Silent Observation"
PERFORMER "Billy Bang Quintet"
ISRC CAJ220723760
INDEX 01 00:00:00
TRACK 02 AUDIO
TITLE "Nothing But Love"
PERFORMER "Billy Bang Quintet"
ISRC CAJ220723771
INDEX 01 18:05:45
TRACK 03 AUDIO
TITLE "Dark Silhouette"
PERFORMER "Billy Bang Quintet"
ISRC CAJ220723782
INDEX 01 28:06:55
TRACK 04 AUDIO
TITLE "At Play In The Fields Of The Lord"
PERFORMER "Billy Bang Quintet"
ISRC CAJ220723793
INDEX 01 51:29:65
Доп. информация:
Recorded live on 28 April 2003 at The Urban Institute For Contemporary Arts, Grand Rapids, MI.
Dedicated to Frank Lowe (1943 - 2003).
 
Состав
Piano – Andrew Bemkey
Bass – Todd Nicholson
Drums – Tatsuya Nakatani
Tenor Saxophone – Frank Lowe
Violin – Billy Bang
Any questions -> support@pro-jazz.com. По всем вопросам пишите -> support@pro-jazz.com
05:52
200
Нет комментариев. Ваш будет первым!