Вы используете незарегистрированную версию компонента "Вкладки"!

Поиск

(Free Jazz, Modern Jazz) Marty Ehrlich's Rites Quartet (Marty Ehrlich, James Zollar, Hank Roberts, Michael Sarin) - Frog Leg Logic - 2011, FLAC (tracks+.cue), lossless

(Free Jazz, Modern Jazz) Marty Ehrlich's Rites Quartet (Marty Ehrlich, James Zollar, Hank Roberts, Michael Sarin) - Frog Leg Logic - 2011, FLAC (tracks+.cue), lossless
Треклист:
Marty Ehrlich's Rites Quartet / Frog Leg Logic
Жанр: Free Jazz, Modern Jazz
Страна-производитель диска: Portugal
Год издания диска: 2011
Издатель (лейбл): Clean Feed
Номер по каталогу: CF242CD
Аудиокодек: FLAC (*.flac)
Тип рипа: tracks+.cue
Битрейт аудио: lossless
Продолжительность: 51:01
Источник (релизер): CD
Наличие сканов в содержимом раздачи: да
Треклист:
1. Frog Leg Logic (5:20)
2. Ballade (10:52)
3. You Can Beat the Slanted Cards (6:18)
4. Walk Along the Way (6:53)
5. Solace (4:45)
6. My Song (6:14)
7. The Gravedigger's Respite (6:47)
 
Лог создания рипа
Exact Audio Copy V1.0 beta 2 from 29. April 2011
EAC extraction logfile from 24. February 2012, 15:14
Marty Ehrlich's Rites Quartet / Frog Leg Logic
Used drive : Optiarc DVD RW AD-7240S Adapter: 2 ID: 0
Read mode : Secure
Utilize accurate stream : Yes
Defeat audio cache : Yes
Make use of C2 pointers : No
Read offset correction : 48
Overread into Lead-In and Lead-Out : No
Fill up missing offset samples with silence : Yes
Delete leading and trailing silent blocks : No
Null samples used in CRC calculations : Yes
Used interface : Installed external ASPI interface
Gap handling : Appended to previous track
Used output format : User Defined Encoder
Selected bitrate : 128 kBit/s
Quality : High
Add ID3 tag : No
Command line compressor : C:\Program Files\Exact Audio Copy\FLAC\FLAC.EXE
Additional command line options : -8 -V -T "ARTIST=%artist%" -T "TITLE=%title%" -T "ALBUM=%albumtitle%" -T "DATE=%year%" -T "TRACKNUMBER=%tracknr%" -T "GENRE=%genre%" -T "COMMENT=%comment%" -T "BAND=%albuminterpret%" -T "COMPOSER=%composer%" %haslyrics%--ta
TOC of the extracted CD
Track | Start | Length | Start sector | End sector
---------------------------------------------------------
1 | 0:00.00 | 5:22.74 | 0 | 24223
2 | 5:22.74 | 10:54.34 | 24224 | 73307
3 | 16:17.33 | 6:20.36 | 73308 | 101843
4 | 22:37.69 | 6:55.19 | 101844 | 132987
5 | 29:33.13 | 8:24.21 | 132988 | 170808
6 | 37:57.34 | 6:16.60 | 170809 | 199068
7 | 44:14.19 | 6:47.36 | 199069 | 229629
Track 1
Filename C:\Marty Ehrlich's Rites Quartet (2011) - Frog Leg Logic\01 Frog Leg Logic.wav
Pre-gap length 0:00:02.00
Peak level 98.8 %
Extraction speed 2.6 X
Track quality 100.0 %
Test CRC 7DFBBFA0
Copy CRC 7DFBBFA0
Track not present in AccurateRip database
Copy OK
Track 2
Filename C:\Marty Ehrlich's Rites Quartet (2011) - Frog Leg Logic\02 Ballade.wav
Pre-gap length 0:00:02.00
Peak level 98.8 %
Extraction speed 3.3 X
Track quality 100.0 %
Test CRC 4782482C
Copy CRC 4782482C
Track not present in AccurateRip database
Copy OK
Track 3
Filename C:\Marty Ehrlich's Rites Quartet (2011) - Frog Leg Logic\03 You Can Beat the Slanted Cards.wav
Pre-gap length 0:00:02.00
Peak level 98.8 %
Extraction speed 3.3 X
Track quality 99.9 %
Test CRC 5B2E5941
Copy CRC 5B2E5941
Track not present in AccurateRip database
Copy OK
Track 4
Filename C:\Marty Ehrlich's Rites Quartet (2011) - Frog Leg Logic\04 Walk Along the Way.wav
Pre-gap length 0:00:02.00
Peak level 98.8 %
Extraction speed 3.9 X
Track quality 100.0 %
Test CRC 33248445
Copy CRC 33248445
Track not present in AccurateRip database
Copy OK
Track 5
Filename C:\Marty Ehrlich's Rites Quartet (2011) - Frog Leg Logic\05 Solace.wav
Pre-gap length 0:00:02.00
Peak level 96.9 %
Extraction speed 4.1 X
Track quality 99.9 %
Test CRC 42068E6E
Copy CRC 42068E6E
Track not present in AccurateRip database
Copy OK
Track 6
Filename C:\Marty Ehrlich's Rites Quartet (2011) - Frog Leg Logic\06 My Song.wav
Pre-gap length 0:00:02.00
Peak level 90.6 %
Extraction speed 4.2 X
Track quality 99.9 %
Test CRC A5BDD689
Copy CRC A5BDD689
Track not present in AccurateRip database
Copy OK
Track 7
Filename C:\Marty Ehrlich's Rites Quartet (2011) - Frog Leg Logic\07 The Gravediggers Respite.wav
Pre-gap length 0:00:02.00
Peak level 98.8 %
Extraction speed 4.8 X
Track quality 100.0 %
Test CRC 06852558
Copy CRC 06852558
Track not present in AccurateRip database
Copy OK
None of the tracks are present in the AccurateRip database
No errors occurred
End of status report
==== Log checksum 0C5188FB31E5A0F7229E606E7070DC920E66B78EAA756B9ECC4FDBDDDF14B526 ====
 
Содержание индексной карты (.CUE)
REM GENRE Jazz
REM DATE 2011
REM DISCID 710BF507
REM COMMENT "ExactAudioCopy v1.0b2"
PERFORMER "Marty Ehrlich's Rites Quartet"
TITLE "Frog Leg Logic"
FILE "01 Frog Leg Logic.wav" WAVE
TRACK 01 AUDIO
TITLE "Frog Leg Logic"
PERFORMER "Marty Ehrlich's Rites Quartet"
ISRC PTNF11108939
INDEX 01 00:00:00
TRACK 02 AUDIO
TITLE "Ballade"
PERFORMER "Marty Ehrlich's Rites Quartet"
ISRC PTNF11108940
INDEX 00 05:20:74
FILE "02 Ballade.wav" WAVE
INDEX 01 00:00:00
TRACK 03 AUDIO
TITLE "You Can Beat the Slanted Cards"
PERFORMER "Marty Ehrlich's Rites Quartet"
ISRC PTNF11108941
INDEX 00 10:52:34
FILE "03 You Can Beat the Slanted Cards.wav" WAVE
INDEX 01 00:00:00
TRACK 04 AUDIO
TITLE "Walk Along the Way"
PERFORMER "Marty Ehrlich's Rites Quartet"
ISRC PTNF11108942
INDEX 00 06:18:36
FILE "04 Walk Along the Way.wav" WAVE
INDEX 01 00:00:00
TRACK 05 AUDIO
TITLE "Solace"
PERFORMER "Marty Ehrlich's Rites Quartet"
ISRC PTNF11108943
INDEX 00 06:53:19
FILE "05 Solace.wav" WAVE
INDEX 01 00:00:00
TRACK 06 AUDIO
TITLE "My Song"
PERFORMER "Marty Ehrlich's Rites Quartet"
ISRC PTNF11108944
INDEX 00 08:22:21
FILE "06 My Song.wav" WAVE
INDEX 01 00:00:00
TRACK 07 AUDIO
TITLE "The Gravedigger?s Respite"
PERFORMER "Marty Ehrlich's Rites Quartet"
ISRC PTNF11108945
INDEX 00 06:14:60
FILE "07 The Gravediggers Respite.wav" WAVE
INDEX 01 00:00:00
 
Об альбоме (сборнике)
Julius Hemphill really has a noble heir in Marty Ehrlich, and the fact that this multi-reed player includes a cellist in his quartet makes us remember Hemphill’s association with the great Abdul Wadud. Ehrlich’s first recording of his Rites Quartet for Clean Feed, “Things Have Got To Change”, contrasted his compositions, both rhythmic and reflective, with never- before recorded pieces by Hemphill. Ehrlich’s new recording with his Rites Quartet, “Frog Leg Logic”, presents a broad canvas of original compositions that further define his concept for this ensemble. The stylistic range of this new CD goes deep in its approach to the post-bop tradition and the Blues, bringing out the exquisite lyricism in Ehrlich’s writing, the timbral associations of the instruments and the improvisational, free-form flights of the soloists. Once more,Marty Ehrlich has in trumpeter James Zollar a contrasting force, and it’s a wonder to hear both in conversation. They push each other further down the road, keeping things alive and moving. Ehrlich reunites with his long-time colleague Hank Roberts on cello, who sounds at times like a third horn, a guitar, a kora, and a voice far off in the wilderness. Roberts combines with drummer Michael Sarin to make a compelling stew of rhythmic energy. “Frog Leg Logic” takes on a sound and direction that is old and new at once. Take the leap and listen. ~ cleanfeed-records.com
The premier of Marty Ehrlich's Rites Quartet, Things Have Got To Change (Clean Feed, 2009), featured the venerable multi-instrumentalist's engaging originals bolstered by a handful of previously unrecorded pieces by his mentor, the late Julius Hemphill (1938-1995). Drawing on Hemphill's seminal work in the St Louis-based Black Artists' Group (BAG), and his innovative writing for the World Saxophone Quartet, Ehrlich has proven to be one of the legendary saxophonist's most ardent devotees, leading Hemphill's self-titled saxophone sextet after his passing. Named after a phrase culled from a poem by James Marshal-founder of the St. Louis-based Human Arts Ensemble (with whom Ehrlich made his recording debut in 1973) - Frog Leg Logic continues to expand upon Hemphill's storied legacy, while offering pertinent examples of the leader's own brand of robust lyricism. The personnel of Ehrlich's Rites Quartet has changed since its first album; Ehrlich and trumpeter James Zollar are joined by veteran cellist Hank Roberts and drummer Michael Sarin, in place of Erik Friedlander and Pheeroan AkLaff, respectively. Ehrlich's commitment to this unconventional instrumental lineup is no coincidence. The Quartet not only mirrors the instrumentation featured on Hemphill's 1972 masterpiece, Dogon A.D. (Mbari), but takes its name from the record's thorny second tune ("Rites"). Ehrlich works subtle variations from this unique formula, conceiving brilliantly contrasting textures between muted brass, diaphanous reeds, sinewy strings and scintillating percussion that transcend obsequious imitation. Bristling with energy, the session opens with the title track and closes with "The Gravedigger's Respite," bracing, hard bop-inflected swingers that highlight the quartet's adroit, muscular interplay - an aspect further emphasized in the circuitous melody of "You Can Beat the Slanted Cards," which exudes a similarly jubilant swing, hemmed by Roberts' elastic pizzicato and Sarin's taut, in-the-pocket grooves. Despite the ebullience of these rousing numbers, the majority of the date largely eschews the funky ardor of the Quartet's debut, reveling instead in a state of bluesy introspection. "Solace" transposes impulsive energy into a sophisticated, chamber-like atmosphere, dominated by Ehrlich's pastoral flute and Zollar's muted horn. "Walk Along the Way" and "My Song" weave balladic understatement into expressionistic tone poems, showcasing the group's ability to sustain a mood, which is revealed in the set's conceptual centerpiece, "Ballade." Unfolding episodically, the blues-tinged lament vacillates through time and tempo shifts with cagey precision, modulating from smoldering testimonial fervor to brisk post-bop angularity, recalling the iconic title cut of Dogon A.D. in sound and spirit. Throughout the soulful meditation, Ehrlich's plangent cadences and Zollar's expressive, plunger-muted vocalizations find earthy concordance in Roberts' percolating fretwork and Sarin's unassuming accents. Released just after International Phonograph Inc.'s acclaimed reissue of Dogon A.D., Frog Leg Logic presents a forward-thinking but reverential variation on an established model, one that not only proves the resilience of Hemphill's visionary concepts, but Ehrlich's merit as a singular composer and improviser of note. ~ troy collins, allaboutjazz.com, january 12, 2012
Frog Leg Logic – последний альбом американского композитора и мультиинструменталиста Марти Элриха, специализирующегося преимущественно на деревянных духовых, выпущенный в конце прошлого года португальским Clean Feed. Это абсолютно новые оригинальные композиции, исполненные в новом же составе. Так, для записи пластинки Эрлих пригласил трубача Джеймса Золлара, чья труба ведёт повествование наряду с его собственными саксами и флейтой, иногда вступая в контрастный диалог, а то и подгоняя один другого. Марти тут воссоединился со своим давним коллегой виолончелистом Хэнком Робертсом, инструмент которого звучит время от времени как третий духовой, гитара, кора, и даже как голос страждущего в пустыне. Всё это разнообразие подчёркивается и несколько урезонивается ненавязчивой ритм-секций, представленной в бэнде барабанщиком Михаилом Зариным. Стилистический диапазон материала через авангардные и модерновые территории уходит глубоко к корням пост-бопа и блюзовым традициям, соединяя изысканную лирику Эрлиха, тембровые ассоциации инструментов и импровизационные, свободные формы полёта творческой фантазии солистов. Таким образом, сабжевое творение с логикой лягушачьего окорочка вобрало в себя звучание и направления, которые являются старыми и новыми одновременно. Один из самых интересных Clean Feed’овских релизов последнего времени. ~ xorosho.com
 
Состав
Marty Ehrlich - alto saxophone, soprano saxophone, flute
James Zollar - trumpet
Hank Roberts - cello
Michael Sarin - drums
Any questions -> support@pro-jazz.com. По всем вопросам пишите -> support@pro-jazz.com
22:22
162
Нет комментариев. Ваш будет первым!