Вы используете незарегистрированную версию компонента "Вкладки"!

Поиск

(Free Jazz, Modern Jazz) David Murray Octet - Dark Star (The Music Of The Grateful Dead) - 1996, FLAC (image+.cue), lossless

(Free Jazz, Modern Jazz) David Murray Octet - Dark Star (The Music Of The Grateful Dead) - 1996, FLAC (image+.cue), lossless
Треклист:
David Murray Octet / Dark Star (The Music Of The Grateful Dead)
Жанр: Free Jazz, Modern Jazz
Страна-производитель диска: USA
Год издания диска: 1996
Издатель (лейбл): Astor Place
Номер по каталогу: TCD 4002
Страна: USA
Аудиокодек: FLAC (*.flac)
Тип рипа: image+.cue
Битрейт аудио: lossless
Продолжительность: 1:01:09
Источник (релизер): CD
Наличие сканов в содержимом раздачи: да
Треклист:
1. Shakedown Street (Garcia, Hunter) - 8:54
2. Samson and Delilah (Traditional) - 11:12
3. Estimated Prophet (Barlow, Weir) - 5:55
4. Dark Star (Garcia, Hunter, Kreutzmann, Lesh, McKernan, Weir) - 16:15
5. China Doll (Garcia, Hunter) - 5:17
6. One More Saturday Night (Weir) - 8:29
7. Shoulda Had Been Me (Cockburn, Nash, Weir) - 5:06
 
Лог создания рипа
Exact Audio Copy V1.0 beta 2 from 29. April 2011
EAC extraction logfile from 20. February 2012, 9:24
David Murray Octet / Dark Star (The Music Of The Grateful Dead)
Used drive : Optiarc DVD RW AD-7240S Adapter: 2 ID: 0
Read mode : Secure
Utilize accurate stream : Yes
Defeat audio cache : Yes
Make use of C2 pointers : No
Read offset correction : 48
Overread into Lead-In and Lead-Out : No
Fill up missing offset samples with silence : Yes
Delete leading and trailing silent blocks : No
Null samples used in CRC calculations : Yes
Used interface : Installed external ASPI interface
Used output format : User Defined Encoder
Selected bitrate : 128 kBit/s
Quality : High
Add ID3 tag : No
Command line compressor : C:\Program Files\Exact Audio Copy\FLAC\FLAC.EXE
Additional command line options : -8 -V -T "ARTIST=%artist%" -T "TITLE=%title%" -T "ALBUM=%albumtitle%" -T "DATE=%year%" -T "TRACKNUMBER=%tracknr%" -T "GENRE=%genre%" -T "COMMENT=%comment%" -T "BAND=%albuminterpret%" -T "COMPOSER=%composer%" %haslyrics%--ta
TOC of the extracted CD
Track | Start | Length | Start sector | End sector
---------------------------------------------------------
1 | 0:00.00 | 8:54.47 | 0 | 40096
2 | 8:54.47 | 11:12.00 | 40097 | 90496
3 | 20:06.47 | 5:55.33 | 90497 | 117154
4 | 26:02.05 | 16:15.00 | 117155 | 190279
5 | 42:17.05 | 5:17.12 | 190280 | 214066
6 | 47:34.17 | 8:29.13 | 214067 | 252254
7 | 56:03.30 | 5:06.15 | 252255 | 275219
Range status and errors
Selected range
Filename C:\David Murray Octet (1996) - Dark Star (The Music Of The Grateful Dead)\David Murray Octet - Dark Star (The Music Of The Grateful Dead).wav
Peak level 99.9 %
Extraction speed 4.0 X
Range quality 99.9 %
Test CRC 11C66102
Copy CRC 11C66102
Copy OK
No errors occurred
AccurateRip summary
Track 1 accurately ripped (confidence 2) [FE8D7911] (AR v2)
Track 2 accurately ripped (confidence 3) [B3F32137] (AR v2)
Track 3 accurately ripped (confidence 3) [2555E828] (AR v2)
Track 4 accurately ripped (confidence 3) [13946C8A] (AR v2)
Track 5 accurately ripped (confidence 3) [A072CA33] (AR v2)
Track 6 accurately ripped (confidence 3) [253A9C7B] (AR v2)
Track 7 accurately ripped (confidence 3) [0A6CCF15] (AR v2)
All tracks accurately ripped
End of status report
==== Log checksum DAF4DCFF6D89451BED67C3AAEDC69B83A45F010840B606C536AF2DA7CAB63706 ====
 
Содержание индексной карты (.CUE)
REM GENRE Jazz
REM DATE 1996
REM DISCID 640E5507
REM COMMENT "ExactAudioCopy v1.0b2"
PERFORMER "David Murray Octet"
TITLE "Dark Star (The Music Of The Grateful Dead)"
FILE "David Murray Octet - Dark Star (The Music Of The Grateful Dead).flac" WAVE
TRACK 01 AUDIO
TITLE "Shakedown Street"
PERFORMER "David Murray Octet"
INDEX 01 00:00:00
TRACK 02 AUDIO
TITLE "Samson And Delilah"
PERFORMER "David Murray Octet"
INDEX 01 08:54:47
TRACK 03 AUDIO
TITLE "Estimated Prophet"
PERFORMER "David Murray Octet"
INDEX 01 20:06:47
TRACK 04 AUDIO
TITLE "Dark Star"
PERFORMER "David Murray Octet"
INDEX 01 26:02:05
TRACK 05 AUDIO
TITLE "China Doll"
PERFORMER "David Murray Octet"
INDEX 01 42:17:05
TRACK 06 AUDIO
TITLE "One More Saturday Night"
PERFORMER "David Murray Octet"
INDEX 01 47:34:17
TRACK 07 AUDIO
TITLE "Shoulda Had Been Me"
PERFORMER "David Murray Octet"
INDEX 01 56:03:30
 
Доп. информация
Recorded on January 17–18, 1996 at Clinton Recording Studios, New York, NY
 
Об альбоме (сборнике)
Rolling Stone (9/5/96, p.65) - 3 Stars - Good - "...re-create(s) not so much the songs but the spirit of the Dead, using the repertoire as a springboard for...sophisticated improvisation....pushing the Dead's penchant for free-form jamming into more dissonant turf than the band ever dared to go....a revelation..."
Entertainment Weekly (6/14/96, p.61) - "...Often-inspired readings are given to good-time groovers (`One More Saturday Night'), ballads (`China Doll'), and spacey jams (`Dark Star'). `Shoulda Been Me,' the closing duet between Murray and Weir, is an unexpected treat." - Rating: B+
Q (10/96, p.169) - 4 Stars - Excellent - "...Injecting just the right amount of free and freaky improvisation to lift the pumping funk of the rhythm section onto a whole new plateau of sound, Murray stays true to both his musical vision and the spirit of the Dead..."
JazzTimes (11/96, p.82) - "...Murray's choices, and that he pulls them off, are testament to his guts, skill and fervor, and to the music's originals source. There's so much kick up here. Murray's off on another adventure, inviting you to listen up, loosen up and take a trip..."
Option (9-10/96, p.122) - "...succeeds on its own merit as a brilliant-and fun-piece of music....The album finds a way to combine rock compositions, multi-instrumental interplay and...improvisation into a wonderfully integrated whole....an unusal treat to find a jazz album that can offer both intelligence and danceable grooves."
Scott Yanow, AMG - "The avant-garde tenor and bass clarinetist David Murray had an opportunity to sit in with the Grateful Dead in 1993 and was quite impressed. With Jerry Garcia's death, Murray was inspired to put together this tribute album but often it sounds as if two bands were playing at once without closely listening to each other. Murray and the horns (which include veteran altoist James Spaulding, the very impressive high-note acrobatics of trumpeter Hugh Ragin, either James Zoller or Omar Kabir on second trumpet and the adventurous trombonist Craig Harris) romp through some rowdy and very emotional ensembles while organist Robert Irving III. (a Miles Davis alumnus) leads the rhythm section through groovin' R&B riffs that seem to ignore the lead voices. The results are often quite silly as the horns screech and squawk while the rhythm churns on. There are two exceptions. The 16-minute "Dark Star" builds slowly to a ferocious level and finds the group acting as one while the closing "Shoulda Had Been Me" is a tenor-guitar duet between Murray and Bob Weir that works quite well. So overall this is a mixed bag, most highly recommended to listeners who have a high tolerance level and a strong sense of humor."
Cduniverse.com - "David Murray, one of jazz's most open-minded progenitors, sat in with the Grateful Dead for one of its shows at Madison Square Garden in 1993. Inspired by the experience of playing to such an attentive and responsive audience, Murray decided to interpret the Dead's music in the studio with his Octet. While it is undoubtedly the improvisational elements of the songs of the Grateful Dead that make them accessible to a jazz interpretation, Murray was sensitive to preserve the line between jazz and rock. He studied several performances of the tunes he chose to play in order to pick out specific melodic transitions and chose only songs that made sense to play in a jazz format. The result is a record that will satisfy the needs of both Murray fans and Deadheads. The rowdy octet does much justice to "Shakedown Street" and "Dark Star." The unlikely explorations showcase the vibrant eclecticism and widely varying influences that turn up in other Octet recordings such as THE TIP."
 
Состав
David Murray - tenor saxophone, bass clarinet
Hugh Ragin - trumpet
James Zoller - trumpet (tracks 3, 4, 5 and 7)
Omar Kabir - trumpet (tracks 1, 2 and 6)
Craig Harris - trombone
James Spaulding - alto saxophone, flute
Robert Irving III - piano, hammond B-3 organ, synthesizers
Fred Hopkins - bass
Renzell Meritt - drums
Bob Weir - guitar (track 7)
Any questions -> support@pro-jazz.com. По всем вопросам пишите -> support@pro-jazz.com
22:12
153
Нет комментариев. Ваш будет первым!