Поиск

(Free Jazz, Modern Creative) [CD] John Coltrane / Archie Shepp - New Thing At Newport (1965) - 2009, FLAC (tracks+.cue), lossless

(Free Jazz, Modern Creative) [CD] John Coltrane / Archie Shepp - New Thing At Newport (1965) - 2009, FLAC (tracks+.cue), lossless
Треклист:
John Coltrane / Archie Shepp - New Thing At Newport (1965) Жанр: Free Jazz, Modern Creative
Носитель: CD
Год издания: 2009
Издатель (лейбл): Impulse!/UMG/Verve Originals Series
Номер по каталогу: 0602517920392
Аудиокодек: FLAC (*.flac)
Тип рипа: tracks+.cue
Битрейт аудио: lossless
Продолжительность: 36:48
Rip by ruskaval
Наличие сканов в содержимом раздачи: да
Треклист:
01. Introduction (Father Norman O'Connor) (1:08)
02. One Down, One Up (12:44)
03. Rufus (Swung His Face At Last To The Wind, Then His Neck Snapped) (5:14)
04. Le Matin Des Noire (7:57)
05. Scag (3:09)
06. Call Me By My Rightful Name (6:36)
Personnel on track 2:
John Coltrane - tenor saxophone
McCoy Tyner - piano
Jimmy Garrison - bass
Elvin Jones - drums
Personnel on tracks 3-6:
Archie Shepp - tenor saxophone
Bobby Hutcherson - vibes
Barre Phillips - bass
Joe Chambers - drums
Rec.: at the Newport Jazz Festival, Newport, RI, July 2, 1965.
 
 
Лог создания рипа
Exact Audio Copy V1.1 from 23. June 2015
EAC extraction logfile from 7. March 2016, 18:06
John Coltrane / Archie Shepp / New Thing At Newport
Used drive : TSSTcorpCDDVDW SE-208DB Adapter: 1 ID: 0
Read mode : Secure
Utilize accurate stream : Yes
Defeat audio cache : Yes
Make use of C2 pointers : No
Read offset correction : 6
Overread into Lead-In and Lead-Out : No
Fill up missing offset samples with silence : Yes
Delete leading and trailing silent blocks : No
Null samples used in CRC calculations : Yes
Used interface : Native Win32 interface for Win NT & 2000
Gap handling : Appended to previous track
Used output format : User Defined Encoder
Selected bitrate : 1024 kBit/s
Quality : High
Add ID3 tag : No
Command line compressor : C:\Program Files (x86)\FLAC Frontend\tools\flac.exe
Additional command line options : -8 -V -T "ARTIST=%artist%" -T "TITLE=%title%" -T "ALBUM=%albumtitle%" -T "DATE=%year%" -T "TRACKNUMBER=%tracknr%" -T "TOTALTRACKS=%numtracks%" -T "GENRE=%genre%" -T "ALBUMARTIST=%albumartist%" -T "ALBUM ARTIST=%albumartist%" -T "COMMENT=EAC Secure Mode, Test & Copy, AccurateRip, FLAC -8" %source%
TOC of the extracted CD
Track | Start | Length | Start sector | End sector
---------------------------------------------------------
1 | 0:00.00 | 1:08.15 | 0 | 5114
2 | 1:08.15 | 12:43.56 | 5115 | 62395
3 | 13:51.71 | 5:13.61 | 62396 | 85931
4 | 19:05.57 | 7:57.07 | 85932 | 121713
5 | 27:02.64 | 3:09.24 | 121714 | 135912
6 | 30:12.13 | 6:35.66 | 135913 | 165603
Track 1
Filename D:\_EAC\John Coltrane & Archie Shepp - New Thing At Newport (1965) [FLAC] {Impulse!-Verve Originals rel 2009}\01 - Introduction (Father Norman O'Connor).wav
Pre-gap length 0:00:02.00
Peak level 93.3 %
Extraction speed 1.8 X
Track quality 100.0 %
Test CRC F4E1C8AC
Copy CRC F4E1C8AC
Accurately ripped (confidence 26) [034C7C62] (AR v2)
Copy OK
Track 2
Filename D:\_EAC\John Coltrane & Archie Shepp - New Thing At Newport (1965) [FLAC] {Impulse!-Verve Originals rel 2009}\02 - One Down, One Up.wav
Peak level 93.3 %
Extraction speed 3.3 X
Track quality 100.0 %
Test CRC AC018D15
Copy CRC AC018D15
Accurately ripped (confidence 26) [BA0B0BF5] (AR v2)
Copy OK
Track 3
Filename D:\_EAC\John Coltrane & Archie Shepp - New Thing At Newport (1965) [FLAC] {Impulse!-Verve Originals rel 2009}\03 - Rufus (Swung His Face At Last To The Wind, Then His Neck Snapped).wav
Pre-gap length 0:00:02.22
Peak level 98.8 %
Extraction speed 3.7 X
Track quality 100.0 %
Test CRC 33ECB4C0
Copy CRC 33ECB4C0
Accurately ripped (confidence 26) [E6315046] (AR v2)
Copy OK
Track 4
Filename D:\_EAC\John Coltrane & Archie Shepp - New Thing At Newport (1965) [FLAC] {Impulse!-Verve Originals rel 2009}\04 - Le Matin Des Noire.wav
Pre-gap length 0:00:04.52
Peak level 98.8 %
Extraction speed 3.7 X
Track quality 99.9 %
Test CRC FF8BF7A6
Copy CRC FF8BF7A6
Accurately ripped (confidence 26) [A484B946] (AR v2)
Copy OK
Track 5
Filename D:\_EAC\John Coltrane & Archie Shepp - New Thing At Newport (1965) [FLAC] {Impulse!-Verve Originals rel 2009}\05 - Scag.wav
Pre-gap length 0:00:02.07
Peak level 98.8 %
Extraction speed 4.0 X
Track quality 100.0 %
Test CRC B2AA1E79
Copy CRC B2AA1E79
Accurately ripped (confidence 26) [7A10A3C9] (AR v2)
Copy OK
Track 6
Filename D:\_EAC\John Coltrane & Archie Shepp - New Thing At Newport (1965) [FLAC] {Impulse!-Verve Originals rel 2009}\06 - Call Me By My Rightful Name.wav
Pre-gap length 0:00:01.62
Peak level 98.8 %
Extraction speed 4.5 X
Track quality 100.0 %
Test CRC 52AC9EDE
Copy CRC 52AC9EDE
Accurately ripped (confidence 26) [09F3E00E] (AR v2)
Copy OK
All tracks accurately ripped
No errors occurred
End of status report
==== Log checksum F718A1A12A8CD83AE291EB003F0DCF23973B5682EB68B6963E20E8587F7A464B ====
 
Содержание индексной карты (.CUE)
REM GENRE Jazz
REM DATE 1965
REM DISCID 3F08A006
REM COMMENT "ExactAudioCopy v1.1"
PERFORMER "John Coltrane / Archie Shepp"
TITLE "New Thing At Newport"
FILE "01 - Introduction (Father Norman O'Connor).wav" WAVE
TRACK 01 AUDIO
TITLE "Introduction (Father Norman O'Connor)"
PERFORMER "John Coltrane / Archie Shepp"
INDEX 01 00:00:00
FILE "02 - One Down, One Up.wav" WAVE
TRACK 02 AUDIO
TITLE "One Down, One Up"
PERFORMER "John Coltrane / Archie Shepp"
INDEX 01 00:00:00
TRACK 03 AUDIO
TITLE "Rufus (Swung His Face At Last To The Wind, Then His Neck Snapped)"
PERFORMER "John Coltrane / Archie Shepp"
INDEX 00 12:41:34
FILE "03 - Rufus (Swung His Face At Last To The Wind, Then His Neck Snapped).wav" WAVE
INDEX 01 00:00:00
TRACK 04 AUDIO
TITLE "Le Matin Des Noire"
PERFORMER "John Coltrane / Archie Shepp"
INDEX 00 05:09:09
FILE "04 - Le Matin Des Noire.wav" WAVE
INDEX 01 00:00:00
TRACK 05 AUDIO
TITLE "Scag"
PERFORMER "John Coltrane / Archie Shepp"
INDEX 00 07:55:00
FILE "05 - Scag.wav" WAVE
INDEX 01 00:00:00
TRACK 06 AUDIO
TITLE "Call Me By My Rightful Name"
PERFORMER "John Coltrane / Archie Shepp"
INDEX 00 03:07:37
FILE "06 - Call Me By My Rightful Name.wav" WAVE
INDEX 01 00:00:00
18:16
536
Нет комментариев. Ваш будет первым!