Поиск

(free jazz) [cd] Amalgam (Trevor Watts, etch..) - Samanna (1977) {2003, FMR}, FLAC (tracks+.cue), lossless

(free jazz) [cd] Amalgam (Trevor Watts, etch..) - Samanna (1977) {2003, FMR}, FLAC (tracks+.cue), lossless
Треклист:
(free jazz) [cd] Amalgam (Trevor Watts, etch..) - Samanna (1977) {2003, FMR}, FLAC (tracks+.cue), lossless


Amalgam - Samanna (1977)

Жанр: free jazz
Год выпуска: 1977
Издатель (лейбл):2003, FMR Records / FMRCD125-L0503
Формат: FLAC (tracks+.cue)
Битрейт аудио: lossless
Продолжительность 49
Источник: what.cd
Alto Saxophone, Percussion – Trevor Watts
Bass Guitar – Colin McKenzie, Pete Cowling
Drums – Liam Genockey
Guitar – Dave Cole (4)

tracks

1. Samanna (21:02)
2. Maas (5:02)
3. Unity (14:58)
4. Berlin Wall (7:59)


 
.log
Exact Audio Copy V1.1 from 23. June 2015
EAC extraction logfile from 18. January 2016, 23:55
Amalgam / Samanna
Used drive : TSSTcorpCDDVDW SH-S223L Adapter: 1 ID: 0
Read mode : Secure
Utilize accurate stream : Yes
Defeat audio cache : Yes
Make use of C2 pointers : No
Read offset correction : 6
Overread into Lead-In and Lead-Out : No
Fill up missing offset samples with silence : Yes
Delete leading and trailing silent blocks : No
Null samples used in CRC calculations : Yes
Used interface : Native Win32 interface for Win NT & 2000
Gap handling : Appended to previous track
Used output format : User Defined Encoder
Selected bitrate : 1024 kBit/s
Quality : High
Add ID3 tag : No
Command line compressor : C:\Program Files (x86)\Exact Audio Copy\FLAC\FLAC.EXE
Additional command line options : -8 -V -T "ARTIST=%artist%" -T "TITLE=%title%" -T "ALBUM=%albumtitle%" -T "DATE=%year%" -T "TRACKNUMBER=%tracknr%" -T "GENRE=%genre%" -T "PERFORMER=%albuminterpret%" -T "COMPOSER=%composer%" -T "ALBUM ARTIST=%albumartist%" -T "ALBUMARTIST=%albumartist%" -T "DISCNUMBER=%cdnumber%" -T "TOTALDISCS=%totalcds%" -T "TOTALTRACKS=%numtracks%" -T "COMMENT=EAC Secure Mode, Test & Copy, AccurateRip, FLAC -8" %source% -o %dest%
TOC of the extracted CD
Track | Start | Length | Start sector | End sector
---------------------------------------------------------
1 | 0:00.00 | 21:02.15 | 0 | 94664
2 | 21:02.15 | 5:02.13 | 94665 | 117327
3 | 26:04.28 | 14:57.64 | 117328 | 184666
4 | 41:02.17 | 7:59.07 | 184667 | 220598
Track 1
Filename E:\what cd\Amalgam - Samanna (1977) [FLAC] {2003, FMR}\01 - Samanna.wav
Pre-gap length 0:00:02.00
Peak level 98.3 %
Extraction speed 5.5 X
Track quality 100.0 %
Test CRC 5581C408
Copy CRC 5581C408
Accurately ripped (confidence 2) [1E96972C] (AR v1)
Copy OK
Track 2
Filename E:\what cd\Amalgam - Samanna (1977) [FLAC] {2003, FMR}\02 - Maas.wav
Pre-gap length 0:00:02.00
Peak level 68.9 %
Extraction speed 6.3 X
Track quality 100.0 %
Test CRC 44089B91
Copy CRC 44089B91
Accurately ripped (confidence 2) [D7203F97] (AR v1)
Copy OK
Track 3
Filename E:\what cd\Amalgam - Samanna (1977) [FLAC] {2003, FMR}\03 - Unity.wav
Pre-gap length 0:00:02.00
Peak level 100.0 %
Extraction speed 7.5 X
Track quality 100.0 %
Test CRC 3ADA2F92
Copy CRC 3ADA2F92
Accurately ripped (confidence 2) [1F397A4B] (AR v1)
Copy OK
Track 4
Filename E:\what cd\Amalgam - Samanna (1977) [FLAC] {2003, FMR}\04 - Berlin Wall.wav
Pre-gap length 0:00:02.00
Peak level 98.8 %
Extraction speed 7.0 X
Track quality 99.9 %
Test CRC 8F355576
Copy CRC 8F355576
Accurately ripped (confidence 2) [A7F7CE96] (AR v1)
Copy OK
All tracks accurately ripped
No errors occurred
End of status report
---- CUETools DB Plugin V2.1.6
[CTDB TOCID: u43vhEJnz_8YggFNC9P2JvlCJcU-] disk not present in database
Submit result: u43vhEJnz_8YggFNC9P2JvlCJcU- has been uploaded
==== Log checksum E852E87A36CD7B5D8BF77B5B2A98F49D3A6D3ADD462D0F8025610FEB832744C8 ====
 
.cue
REM GENRE Jazz
REM DATE 1977
REM DISCID 310B7D04
REM COMMENT "ExactAudioCopy v1.1"
PERFORMER "Amalgam"
TITLE "Samanna"
FILE "01 - Samanna.wav" WAVE
TRACK 01 AUDIO
TITLE "Samanna"
PERFORMER "Amalgam"
INDEX 01 00:00:00
TRACK 02 AUDIO
TITLE "Maas"
PERFORMER "Amalgam"
INDEX 00 21:00:15
FILE "02 - Maas.wav" WAVE
INDEX 01 00:00:00
TRACK 03 AUDIO
TITLE "Unity"
PERFORMER "Amalgam"
INDEX 00 05:00:13
FILE "03 - Unity.wav" WAVE
INDEX 01 00:00:00
TRACK 04 AUDIO
TITLE "Berlin Wall"
PERFORMER "Amalgam"
INDEX 00 14:55:64
FILE "04 - Berlin Wall.wav" WAVE
INDEX 01 00:00:00
https://www.discogs.com/Amalgam-Samanna/release/3146857
другие релизы
18:15
369
Нет комментариев. Ваш будет первым!