Вы используете незарегистрированную версию компонента "Вкладки"!

Поиск

(Free Jazz, Modern Creative, Avant-Garde Jazz) Predella Group (Ken Vandermark, Jeb Bishop, Jaimie Branch, Tim Daisy, Fred Lonberg-Holm, Nate McBride, Jeff Parker) - Strade d'Acqua / Roads of Water - 2010, FLAC (tracks+.cue), lossless

(Free Jazz, Modern Creative, Avant-Garde Jazz) Predella Group (Ken Vandermark, Jeb Bishop, Jaimie Branch, Tim Daisy, Fred Lonberg-Holm, Nate McBride, Jeff Parker) - Strade d'Acqua / Roads of Water - 2010, FLAC (tracks+.cue), lossless
Треклист:
Predella Group - Strade d'Acqua / Roads of Water
Жанр: Free Jazz, Modern Creative, Avant-Garde Jazz
Страна-производитель диска: Poland
Год издания диска: 2010
Издатель (лейбл): Multikulti Project
Номер по каталогу: MPS001
Страна: USA
Аудиокодек: FLAC (*.flac)
Тип рипа: tracks+.cue
Битрейт аудио: lossless
Продолжительность: 1:12:53
Источник (релизер): CD
Наличие сканов в содержимом раздачи: да
Треклист:
1. Further (for Anselm Kiefer) - 9:21
2. Blue Over Green (for Mark Rothko) - 8:53
3. Sieve Of the Soul (for Bruce Naumann) - 9:12
4. Dust Town (for William Eggleston) - 11:11
5. Austral Cartography (for Cormac McCarthy) - 12:43
6. Signal (for Franz Kline) - 9:22
7. Dusk Meridian (for William Faulkner) - 12:11
 
Лог создания рипа
Exact Audio Copy V1.0 beta 2 from 29. April 2011
EAC extraction logfile from 2. November 2011, 12:00
Predella Group / Strade d'Acqua
Used drive : Optiarc DVD RW AD-7240S Adapter: 2 ID: 0
Read mode : Secure
Utilize accurate stream : Yes
Defeat audio cache : Yes
Make use of C2 pointers : No
Read offset correction : 48
Overread into Lead-In and Lead-Out : No
Fill up missing offset samples with silence : Yes
Delete leading and trailing silent blocks : No
Null samples used in CRC calculations : Yes
Used interface : Native Win32 interface for Win NT & 2000
Gap handling : Appended to previous track
Used output format : User Defined Encoder
Selected bitrate : 768 kBit/s
Quality : High
Add ID3 tag : No
Command line compressor : C:\Program Files\Exact Audio Copy\FLAC\FLAC.EXE
Additional command line options : -6 -V -T "ARTIST=%artist%" -T "TITLE=%title%" -T "ALBUM=%albumtitle%" -T "DATE=%year%" -T "TRACKNUMBER=%tracknr%" -T "GENRE=%genre%" -T "COMMENT=%comment%" -T "BAND=%albuminterpret%" -T "COMPOSER=%composer%" %haslyrics%--ta
TOC of the extracted CD
Track | Start | Length | Start sector | End sector
---------------------------------------------------------
1 | 0:00.00 | 9:21.36 | 0 | 42110
2 | 9:21.36 | 8:52.53 | 42111 | 82063
3 | 18:14.14 | 9:12.12 | 82064 | 123475
4 | 27:26.26 | 11:11.14 | 123476 | 173814
5 | 38:37.40 | 12:42.61 | 173815 | 231025
6 | 51:20.26 | 9:21.69 | 231026 | 273169
7 | 60:42.20 | 12:11.29 | 273170 | 328023
Track 1
Filename C:\Predella Group (2010) - Strade d'Acqua\01 Further.wav
Pre-gap length 0:00:02.00
Peak level 96.5 %
Extraction speed 2.8 X
Track quality 100.0 %
Test CRC 0A1E4A90
Copy CRC 0A1E4A90
Track not present in AccurateRip database
Copy OK
Track 2
Filename C:\Predella Group (2010) - Strade d'Acqua\02 Blue Over Green.wav
Peak level 96.5 %
Extraction speed 3.3 X
Track quality 100.0 %
Test CRC 276F33C2
Copy CRC 276F33C2
Track not present in AccurateRip database
Copy OK
Track 3
Filename C:\Predella Group (2010) - Strade d'Acqua\03 Sieve Of The Soul.wav
Peak level 96.5 %
Extraction speed 3.8 X
Track quality 100.0 %
Test CRC 2D6665A5
Copy CRC 2D6665A5
Track not present in AccurateRip database
Copy OK
Track 4
Filename C:\Predella Group (2010) - Strade d'Acqua\04 Dust Town.wav
Peak level 96.5 %
Extraction speed 4.3 X
Track quality 100.0 %
Test CRC DBCEE03B
Copy CRC DBCEE03B
Track not present in AccurateRip database
Copy OK
Track 5
Filename C:\Predella Group (2010) - Strade d'Acqua\05 Austral Cartography.wav
Peak level 96.5 %
Extraction speed 4.8 X
Track quality 100.0 %
Test CRC BEEDAF97
Copy CRC BEEDAF97
Track not present in AccurateRip database
Copy OK
Track 6
Filename C:\Predella Group (2010) - Strade d'Acqua\06 Signal.wav
Peak level 96.5 %
Extraction speed 5.1 X
Track quality 100.0 %
Test CRC 23B467B9
Copy CRC 23B467B9
Track not present in AccurateRip database
Copy OK
Track 7
Filename C:\Predella Group (2010) - Strade d'Acqua\07 Dusk Meridian.wav
Peak level 96.5 %
Extraction speed 5.3 X
Track quality 99.9 %
Test CRC C2E61BB3
Copy CRC C2E61BB3
Track not present in AccurateRip database
Copy OK
None of the tracks are present in the AccurateRip database
No errors occurred
End of status report
==== Log checksum 79561773CA53E82821880DDEE33B4558E7AACBFE9071CDECAF0B16DF8B7288A6 ====
 
Содержание индексной карты (.CUE)
REM GENRE Jazz
REM DATE 2010
REM DISCID 60111507
REM COMMENT "ExactAudioCopy v1.0b2"
CATALOG 5907529223413
PERFORMER "Predella Group"
TITLE "Strade d'Acqua"
FILE "01 Further.wav" WAVE
TRACK 01 AUDIO
TITLE "Further"
PERFORMER "Predella Group"
INDEX 01 00:00:00
FILE "02 Blue Over Green.wav" WAVE
TRACK 02 AUDIO
TITLE "Blue Over Green"
PERFORMER "Predella Group"
INDEX 01 00:00:00
FILE "03 Sieve Of The Soul.wav" WAVE
TRACK 03 AUDIO
TITLE "Sieve Of The Soul"
PERFORMER "Predella Group"
INDEX 01 00:00:00
FILE "04 Dust Town.wav" WAVE
TRACK 04 AUDIO
TITLE "Dust Town"
PERFORMER "Predella Group"
INDEX 01 00:00:00
FILE "05 Austral Cartography.wav" WAVE
TRACK 05 AUDIO
TITLE "Austral Cartography"
PERFORMER "Predella Group"
INDEX 01 00:00:00
FILE "06 Signal.wav" WAVE
TRACK 06 AUDIO
TITLE "Signal"
PERFORMER "Predella Group"
INDEX 01 00:00:00
FILE "07 Dusk Meridian.wav" WAVE
TRACK 07 AUDIO
TITLE "Dusk Meridian"
PERFORMER "Predella Group"
INDEX 01 00:00:00
 
Об исполнителе (группе)
Prolific composer/saxophonist Ken Vandermark's first soundtrack Project, Strade d'Acqua / Roads of Water, brings together his multiple interests and sound designs, creating a work for the film by Augusto Contento. It can exists as a standalone album, separate from the film, without commentary.
Recorded in 2008, Vandermark's Predella Group reunites trombonist Jeb Bishop — an original member of the Vandermark 5 with the leader, as well as his replacement, cellist Fred Lonberg-Holm. For this work, Vandermark arranges the sound in a sparse manner, perhaps to leave plenty of space for the visuals.
Relying heavily on Vandermark's new favorite drummer Tim Daisy — who plays a bit of marimba on "Sieve of the Soul" — the atmosphere is one of slowed tempos and space. In the gaps, Vandermark allows his players to fill in with breathy slurs and the occasional electronic flashes. Bassist Nate McBride's heavy opening to "Blue Over Green" carpets the unison horn lines that give way to seemingly casual single-note from guitarist Jeff Parker, taking flight before the track abruptly ends mid-flight as does "Signal," an open improvisation of horns, cast about and fuzzy electronics from Lonberg-Holm.
Highlights include Bishop and trumpeter Jaimie Branch's solos on "Dust Town." The moody walking piece first gets the blues treatment from the trombone, then Branch coaxes a very Milesian sound, before a slap-quick change into Vandermark's urgent solo over pounding drums and haunting guitar. The discovery here is Branch, her sound featuring minimalist breathing or tangy muted notes. Like the recent guest appearance of trumpeter Magnus Broo with V5, Branch's horn completes this project.
 
Об альбоме (сборнике)
Strade d'Acqua (Roads of Water) is the first soundtrack composed by Ken Vandermark, a recognized Chicago sax and clarinet player, composer and improviser.
A documentary movie directed by Augusto Contento tells a story of people living on the Amazon river, about the escape from civilization that increasingly determines our lives and our choices and about indigenous people who know no other life.
A very poetic tale on the one hand, it's also a very real story of many heroes, a story accompanied by very few sounds. It is filled with beautiful music by Vandermark, music that gives the story space and breath. Vandermark refers here both to what he knows best - traditional, yet forward-looking jazz, as well as contemporary music and folk - although the latter ones are very, very subtle.
The soundtrack is highly illustrative in nature, although the lyrical themes, that are sometimes interwoven, are reminiscent of the masters of the best jazz ballads. It is a new face of Ken Vandermark: beautiful, poetic and lyrical, but also crude, devoid of sentimental sweetness, presenting a very different, a very focused and pensive face of this acknowledged Chicago jazz improviser.
 
Состав
Ken Vandermark - reeds
Jeb Bishop - trombone
Jaimie Branch - trumpet
Tim Daisy - drums, percussion
Fred Lonberg-Holm - cello
Nate McBride - bass
Jeff Parker - guitar
По всем вопросам пишите личное сообщение пользователю M0p94ok.
18:11
167
Нет комментариев. Ваш будет первым!