Вы используете незарегистрированную версию компонента "Вкладки"!

Поиск

(Contemporary Jazz, Free Funk) Shannon Jackson & The Decoding Society (David "Fuze" Fiuczynski, Jef Lee Johnson, Dom Richards) - Raven Roc - 1992, FLAC (image+.cue), lossless

(Contemporary Jazz, Free Funk) Shannon Jackson & The Decoding Society (David "Fuze" Fiuczynski, Jef Lee Johnson, Dom Richards) - Raven Roc - 1992, FLAC (image+.cue), lossless
Треклист:
Shannon Jackson & The Decoding Society / Raven Roc
Жанр: Contemporary Jazz, Free Funk
Страна-производитель диска: Japan
Год издания диска: 1992
Издатель (лейбл): DIW Records
Номер по каталогу: DIW-862
Аудиокодек: FLAC (*.flac)
Тип рипа: image+.cue
Битрейт аудио: lossless
Продолжительность: 55:17
Источник (релизер): cd
Наличие сканов в содержимом раздачи: нет
Треклист:
1 Sun Calling 8:58
2 Hatched Spirits Blues 7:06
3 Illegal 3:51
4 Sexual Drum Dance 8:20
5 Sunday Bells 3:07
6 Raven Roc 1:41
7 Xmas Woman 4:26
8 Truth & Grace 5:10
9 Magic Park 4:20
10 This Groove Hea'r 8:10
 
Лог создания рипа
Exact Audio Copy V1.0 beta 2 from 29. April 2011
EAC extraction logfile from 5. November 2011, 10:32
Shannon Jackson / Raven Roc
Used drive : Optiarc DVD RW AD-7170A Adapter: 0 ID: 0
Read mode : Secure
Utilize accurate stream : Yes
Defeat audio cache : Yes
Make use of C2 pointers : No
Read offset correction : 48
Overread into Lead-In and Lead-Out : No
Fill up missing offset samples with silence : Yes
Delete leading and trailing silent blocks : No
Null samples used in CRC calculations : Yes
Used interface : Native Win32 interface for Win NT & 2000
Used output format : User Defined Encoder
Selected bitrate : 320 kBit/s
Quality : High
Add ID3 tag : No
Command line compressor : C:\Program Files\Exact Audio Copy\Flac\flac.exe
Additional command line options : -V -8 -T "Date=%year%" -T "Genre=%genre%" %source%
TOC of the extracted CD
Track | Start | Length | Start sector | End sector
---------------------------------------------------------
1 | 0:00.00 | 8:59.22 | 0 | 40446
2 | 8:59.22 | 7:05.70 | 40447 | 72391
3 | 16:05.17 | 3:52.00 | 72392 | 89791
4 | 19:57.17 | 8:20.70 | 89792 | 127361
5 | 28:18.12 | 3:08.03 | 127362 | 141464
6 | 31:26.15 | 1:41.30 | 141465 | 149069
7 | 33:07.45 | 4:27.37 | 149070 | 169131
8 | 37:35.07 | 5:10.13 | 169132 | 192394
9 | 42:45.20 | 4:21.72 | 192395 | 212041
10 | 47:07.17 | 8:10.45 | 212042 | 248836
Range status and errors
Selected range
Filename C:\EAC\Downloads\Shannon Jackson - Raven Roc.wav
Peak level 100.0 %
Extraction speed 5.3 X
Range quality 100.0 %
Test CRC 829ACBDF
Copy CRC 829ACBDF
Copy OK
No errors occurred
AccurateRip summary
Track 1 cannot be verified as accurate (confidence 1) [895A1E54], AccurateRip returned [A387AEAC] (AR v2)
Track 2 accurately ripped (confidence 1) [D70F1F0A] (AR v2)
Track 3 accurately ripped (confidence 1) [0DF197F1] (AR v2)
Track 4 accurately ripped (confidence 1) [51EF50A1] (AR v2)
Track 5 accurately ripped (confidence 1) [1E0C41B2] (AR v2)
Track 6 accurately ripped (confidence 1) [34A413F7] (AR v2)
Track 7 accurately ripped (confidence 1) [4761877E] (AR v2)
Track 8 accurately ripped (confidence 1) [827FF3E8] (AR v2)
Track 9 accurately ripped (confidence 1) [B45BF6EC] (AR v2)
Track 10 accurately ripped (confidence 1) [8E96DBA2] (AR v2)
9 трек(и) скопированы точно
1 трек(и) не удалось проверить на точность
Some tracks could not be verified as accurate
End of status report
==== Log checksum 8C8B0294ED755680FF7646A2A71E9572EF0B8D32544455E828F9F68C71BD15DD ====
 
Содержание индексной карты (.CUE)
REM GENRE "Contemporary Jazz"
REM DATE 1992
REM DISCID AB0CF50A
REM COMMENT "ExactAudioCopy v1.0b2"
PERFORMER "Shannon Jackson"
TITLE "Raven Roc"
FILE "Shannon Jackson - Raven Roc.flac" WAVE
TRACK 01 AUDIO
TITLE "Sun Calling"
PERFORMER "Shannon Jackson"
INDEX 01 00:00:00
TRACK 02 AUDIO
TITLE "Hatched Spirit Blues"
PERFORMER "Shannon Jackson"
INDEX 01 08:59:22
TRACK 03 AUDIO
TITLE "Illegal"
PERFORMER "Shannon Jackson"
INDEX 01 16:05:17
TRACK 04 AUDIO
TITLE "Sexual Drum Dance"
PERFORMER "Shannon Jackson"
INDEX 00 19:56:70
INDEX 01 19:57:17
TRACK 05 AUDIO
TITLE "Sunday Bells"
PERFORMER "Shannon Jackson"
INDEX 00 28:18:02
INDEX 01 28:18:12
TRACK 06 AUDIO
TITLE "Raven Roc"
PERFORMER "Shannon Jackson"
INDEX 00 31:25:57
INDEX 01 31:26:15
TRACK 07 AUDIO
TITLE "Xmas Woman"
PERFORMER "Shannon Jackson"
INDEX 01 33:07:45
TRACK 08 AUDIO
TITLE "Truth & Grace"
PERFORMER "Shannon Jackson"
INDEX 00 37:34:02
INDEX 01 37:35:07
TRACK 09 AUDIO
TITLE "Magic Park"
PERFORMER "Shannon Jackson"
INDEX 01 42:45:20
TRACK 10 AUDIO
TITLE "This Groove Hea'r"
PERFORMER "Shannon Jackson"
INDEX 00 47:05:62
INDEX 01 47:07:17
Доп. информация: Recorded at Sorcerer Sound, NYC on February 22, 23 & 24, 1992
 
Состав
Bass – Dom Richards
Drums, Flute, Oboe [Schalmei - Ancient Metal Oboe] – Shannon Jackson
Guitar [Left] – Jef Lee Johnson
Guitar [Right] – David "Fuze" Fiuczynski
По всем вопросам пишите личное сообщение пользователю M0p94ok.
18:11
181
Нет комментариев. Ваш будет первым!