Вы используете незарегистрированную версию компонента "Вкладки"!

Поиск

(Free Jazz) Matthew Goodheart with Leo Smith - Interludes of Breath and Substance - 1999, FLAC (tracks+.cue), lossless

Треклист:
Matthew Goodheart with Leo Smith - Interludes of Breath and Substance
Жанр: Free Jazz
Год выпуска диска: 1999
Производитель диска: Cadence Jazz Records (CJR 1100)
Источник: soulseek
Аудио кодек: FLAC
Тип рипа: tracks+.cue
Битрейт аудио: lossless
Продолжительность: 59:54
Трэклист:
1. Utterance (Melody for Wadada) 7:10
2. Song of Wind and Earth 6:03
3. A Dream of Whispering 7:46
4. Conference 5:05
5. Suite of Talking Music: I 1:18
6. Suite of Talking Music: II 2:16
7. Suite of Talking Music: III 2:55
8. Suite of Talking Music: IV 6:05
9. Between-Play 8:21
10. Postlude 4:53
11. Utterance II (Melody for Wadada) 7:57
all compositions by Matthew Goodheart
recorded February 1998 at Bay Sound Studios, Berkeley, CA
Matthew Goodheart piano
Leo Smith trumpet
 
Отчёт EAC
EAC extraction logfile from 10. June 2007, 17:14 for CD
Matthew Goodheart with Leo Smith / Interludes of Breath and Substance
Used drive : LITE-ON LTR-52327S Adapter: 1 ID: 0
Read mode : Secure with NO C2, accurate stream, disable cache
Read offset correction : 6
Overread into Lead-In and Lead-Out : No
Used output format : Internal WAV Routines
44.100 Hz; 16 Bit; Stereo
Other options :
Fill up missing offset samples with silence : Yes
Delete leading and trailing silent blocks : No
Native Win32 interface for Win NT & 2000
Track 1
Filename E:\New Rip\Matthew Goodheart with Leo Smith - Interludes of Breath and Substance\01 - Utterance I (Melody for Wadada).wav
Pre-gap length 0:00:02.00
Peak level 100.0 %
Track quality 100.0 %
Test CRC 62EED185
Copy CRC 62EED185
Copy OK
Track 2
Filename E:\New Rip\Matthew Goodheart with Leo Smith - Interludes of Breath and Substance\02 - Song of Wind and Earth.wav
Peak level 100.0 %
Track quality 100.0 %
Test CRC 55C2DA88
Copy CRC 55C2DA88
Copy OK
Track 3
Filename E:\New Rip\Matthew Goodheart with Leo Smith - Interludes of Breath and Substance\03 - A Dream of Whispering.wav
Peak level 95.5 %
Track quality 100.0 %
Test CRC 8019BF7E
Copy CRC 8019BF7E
Copy OK
Track 4
Filename E:\New Rip\Matthew Goodheart with Leo Smith - Interludes of Breath and Substance\04 - Conference.wav
Peak level 100.0 %
Track quality 100.0 %
Test CRC 0A65346C
Copy CRC 0A65346C
Copy OK
Track 5
Filename E:\New Rip\Matthew Goodheart with Leo Smith - Interludes of Breath and Substance\05 - Suite of Talking Music I.wav
Peak level 66.3 %
Track quality 100.0 %
Test CRC CDC004E6
Copy CRC CDC004E6
Copy OK
Track 6
Filename E:\New Rip\Matthew Goodheart with Leo Smith - Interludes of Breath and Substance\06 - Suite of Talking Music II.wav
Pre-gap length 0:00:00.26
Peak level 94.3 %
Track quality 100.0 %
Test CRC E39244B7
Copy CRC E39244B7
Copy OK
Track 7
Filename E:\New Rip\Matthew Goodheart with Leo Smith - Interludes of Breath and Substance\07 - Suite of Talking Music III.wav
Peak level 81.9 %
Track quality 100.0 %
Test CRC FBEF9FDB
Copy CRC FBEF9FDB
Copy OK
Track 8
Filename E:\New Rip\Matthew Goodheart with Leo Smith - Interludes of Breath and Substance\08 - Suite of Talking Music VI.wav
Peak level 100.0 %
Track quality 100.0 %
Test CRC 1BEB74BA
Copy CRC 1BEB74BA
Copy OK
Track 9
Filename E:\New Rip\Matthew Goodheart with Leo Smith - Interludes of Breath and Substance\09 - Between-Play.wav
Peak level 100.0 %
Track quality 100.0 %
Test CRC 74BB87FC
Copy CRC 74BB87FC
Copy OK
Track 10
Filename E:\New Rip\Matthew Goodheart with Leo Smith - Interludes of Breath and Substance\10 - Postlude.wav
Peak level 83.0 %
Track quality 100.0 %
Test CRC 9CA42C9A
Copy CRC 9CA42C9A
Copy OK
Track 11
Filename E:\New Rip\Matthew Goodheart with Leo Smith - Interludes of Breath and Substance\11 - Utterance II (Melody for Wadada).wav
Peak level 96.5 %
Track quality 100.0 %
Test CRC F8DC912E
Copy CRC F8DC912E
Copy OK
No errors occured
End of status report
 
Отчёт Audiocheckera
AUDIOCHECKER v2.0 beta (build 457) - by Dester - opdester@freemail.hu
~~~~~~~~~~~~~~~~~~~~~~~~~~~~~~~~~~
-=== DO NOT EDIT THIS FILE! ===-
Path: ...\matthew goodheart with leo smith - interludes of breath and substance (1999)
01 -=- 01 - utterance i (melody for wadada).flac -=- CDDA (100%)
02 -=- 02 - song of wind and earth.flac -=- CDDA (100%)
03 -=- 03 - a dream of whispering.flac -=- CDDA (100%)
04 -=- 04 - conference.flac -=- CDDA (99%)
05 -=- 05 - suite of talking music i.flac -=- CDDA (100%)
06 -=- 06 - suite of talking music ii.flac -=- CDDA (99%)
07 -=- 07 - suite of talking music iii.flac -=- CDDA (99%)
08 -=- 08 - suite of talking music vi.flac -=- CDDA (100%)
09 -=- 09 - between-play.flac -=- CDDA (100%)
10 -=- 10 - postlude.flac -=- CDDA (99%)
11 -=- 11 - utterance ii (melody for wadada).flac -=- CDDA (100%)
Summary 99.64% CDDA
78609108
 
cue
REM GENRE Jazz
REM DATE 1999
REM DISCID A60E0A0B
REM COMMENT "ExactAudioCopy v0.95b3"
PERFORMER "Matthew Goodheart with Leo Smith"
TITLE "Interludes of Breath and Substance"
FILE "01 - Utterance I (Melody for Wadada).wav" WAVE
TRACK 01 AUDIO
TITLE "Utterance I (Melody for Wadada)"
PERFORMER "Matthew Goodheart with Leo Smith"
INDEX 01 00:00:00
FILE "02 - Song of Wind and Earth.wav" WAVE
TRACK 02 AUDIO
TITLE "Song of Wind and Earth"
PERFORMER "Matthew Goodheart with Leo Smith"
INDEX 01 00:00:00
FILE "03 - A Dream of Whispering.wav" WAVE
TRACK 03 AUDIO
TITLE "A Dream of Whispering"
PERFORMER "Matthew Goodheart with Leo Smith"
INDEX 01 00:00:00
FILE "04 - Conference.wav" WAVE
TRACK 04 AUDIO
TITLE "Conference"
PERFORMER "Matthew Goodheart with Leo Smith"
INDEX 01 00:00:00
FILE "05 - Suite of Talking Music I.wav" WAVE
TRACK 05 AUDIO
TITLE "Suite of Talking Music I"
PERFORMER "Matthew Goodheart with Leo Smith"
INDEX 01 00:00:00
TRACK 06 AUDIO
TITLE "Suite of Talking Music II"
PERFORMER "Matthew Goodheart with Leo Smith"
INDEX 00 01:18:43
FILE "06 - Suite of Talking Music II.wav" WAVE
INDEX 01 00:00:00
FILE "07 - Suite of Talking Music III.wav" WAVE
TRACK 07 AUDIO
TITLE "Suite of Talking Music III"
PERFORMER "Matthew Goodheart with Leo Smith"
INDEX 01 00:00:00
FILE "08 - Suite of Talking Music VI.wav" WAVE
TRACK 08 AUDIO
TITLE "Suite of Talking Music VI"
PERFORMER "Matthew Goodheart with Leo Smith"
INDEX 01 00:00:00
FILE "09 - Between-Play.wav" WAVE
TRACK 09 AUDIO
TITLE "Between-Play"
PERFORMER "Matthew Goodheart with Leo Smith"
INDEX 01 00:00:00
FILE "10 - Postlude.wav" WAVE
TRACK 10 AUDIO
TITLE "Postlude"
PERFORMER "Matthew Goodheart with Leo Smith"
INDEX 01 00:00:00
FILE "11 - Utterance II (Melody for Wadada).wav" WAVE
TRACK 11 AUDIO
TITLE "Utterance II (Melody for Wadada)"
PERFORMER "Matthew Goodheart with Leo Smith"
INDEX 01 00:00:00
По всем вопросам пишите личное сообщение пользователю M0p94ok.
23:07
163
Нет комментариев. Ваш будет первым!