Вы используете незарегистрированную версию компонента "Вкладки"!

Поиск

(Free improvisation, Abstract, Noise, Ambient) Keith Rowe & John Tilbury - Duos For Doris (2cd) - 2003, FLAC (tracks+.cue), lossless

Треклист:
Keith Rowe & John Tilbury - Duos For Doris
Жанр: Free improvisation, Abstract, Noise, Ambient
Год выпуска диска: 2003
Производитель диска: Erstwhile Records (Erstwhile 030)
Источник: вот.сиди (kalrojdlan)
Аудио кодек: FLAC
Тип рипа: tracks+.cue
Битрейт аудио: lossless
Продолжительность: 2:13:17
Трэклист:
Disc 1:
Cathnor (1:10:14)
Disc 2:
Olaf (45:32)
Oxleay (17:29)
Keith Rowe guitar, electronics
John Tilbury piano
 
Отчёт XLD
 
I
X Lossless Decoder version 20091230 (115.2)
XLD extraction logfile from 2010-01-09 07:00:46 -0500
Keith Rowe & John Tilbury / Duos For Doris (disc 1)
Used drive : MATSHITA DVD-R UJ-868 (revision KB19)
Use cdparanoia mode : YES (CDParanoia III 10.2 engine)
Disable audio cache : OK for the drive with cache less than 2750KB
Make use of C2 pointers : NO
Read offset correction : 102
Max retry count : 100
TOC of the extracted CD
Track | Start | Length | Start sector | End sector
---------------------------------------------------------
1 | 00:00:00 | 70:14:31 | 0 | 316080
Track 01
Filename : /Users/xxx/Music/#MYRIPS/Keith Rowe : John Tilbury - Duos for Doris (erstwhile 030-2, 2003) FLAC/01 Keith Rowe & John Tilbury - Cathnor.flac
Pre-gap length : 00:02:00
CRC32 hash (test run) : 857B1EF3
CRC32 hash : 857B1EF3
CRC32 hash (skip zero) : 5B1065B2
AccurateRip signature : B92A0CD9
->Track not present in AccurateRip database.
Statistics
Read error : 0
Skipped (treated as error) : 0
Edge jitter error (maybe fixed) : 0
Atom jitter error (maybe fixed) : 0
Drift error (maybe fixed) : 0
Dropped bytes error (maybe fixed) : 0
Duplicated bytes error (maybe fixed) : 0
Inconsistency in error sectors : 0
No errors occurred
End of status report
 
II
X Lossless Decoder version 20091230 (115.2)
XLD extraction logfile from 2010-01-09 07:54:47 -0500
Keith Rowe & John Tilbury / Duos for Doris (CD2)
Used drive : MATSHITA DVD-R UJ-868 (revision KB19)
Use cdparanoia mode : YES (CDParanoia III 10.2 engine)
Disable audio cache : OK for the drive with cache less than 2750KB
Make use of C2 pointers : NO
Read offset correction : 102
Max retry count : 100
TOC of the extracted CD
Track | Start | Length | Start sector | End sector
---------------------------------------------------------
1 | 00:00:00 | 45:32:44 | 0 | 204943
2 | 45:32:44 | 17:29:65 | 204944 | 283683
Track 01
Filename : /Users/xxx/Music/#MYRIPS/Keith Rowe : John Tilbury - Duos for Doris (erstwhile 030-2, 2003) FLAC/Disc 2/01 Keith Rowe & John Tilbury - Olaf.flac
Pre-gap length : 00:02:00
CRC32 hash (test run) : 43BF3DA3
CRC32 hash : 43BF3DA3
CRC32 hash (skip zero) : 907D791A
AccurateRip signature : 6FB4955F
->Accurately ripped! (confidence 1)
Statistics
Read error : 0
Skipped (treated as error) : 0
Edge jitter error (maybe fixed) : 0
Atom jitter error (maybe fixed) : 0
Drift error (maybe fixed) : 0
Dropped bytes error (maybe fixed) : 0
Duplicated bytes error (maybe fixed) : 0
Inconsistency in error sectors : 0
Track 02
Filename : /Users/xxx/Music/#MYRIPS/Keith Rowe : John Tilbury - Duos for Doris (erstwhile 030-2, 2003) FLAC/Disc 2/02 Keith Rowe & John Tilbury - Oxleay.flac
Pre-gap length : 00:02:00
CRC32 hash (test run) : 8C7E2DD0
CRC32 hash : 8C7E2DD0
CRC32 hash (skip zero) : 1EE7E9D1
AccurateRip signature : 2701DFAA
->Accurately ripped! (confidence 1)
Statistics
Read error : 0
Skipped (treated as error) : 0
Edge jitter error (maybe fixed) : 0
Atom jitter error (maybe fixed) : 0
Drift error (maybe fixed) : 0
Dropped bytes error (maybe fixed) : 0
Duplicated bytes error (maybe fixed) : 0
Inconsistency in error sectors : 0
No errors occurred
End of status report
 
cue
 
I
TITLE "Duos For Doris (disc 1)"
PERFORMER "Keith Rowe & John Tilbury"
REM GENRE "Avantgarde"
REM DATE 2003
FILE "01 Keith Rowe & John Tilbury - Cathnor.wav" WAVE
TRACK 01 AUDIO
TITLE "Cathnor"
INDEX 01 00:00:00
 
II
TITLE "Duos for Doris (CD2)"
PERFORMER "Keith Rowe & John Tilbury"
REM GENRE "Avantgarde"
REM DATE 2003
FILE "01 Keith Rowe & John Tilbury - Olaf.wav" WAVE
TRACK 01 AUDIO
TITLE "Olaf"
INDEX 01 00:00:00
TRACK 02 AUDIO
TITLE "Oxleay"
INDEX 00 45:30:44
FILE "02 Keith Rowe & John Tilbury - Oxleay.wav" WAVE
INDEX 01 00:00:00
 
Отчёт Audiocheckera
Started at: четверг, 20. 05. 2010. - 18:06.04
3 files found
1 -===- H:\Песеньки\lossless\keith rowe john tilbury\duos for doris 2003\Disc 1\01 Keith Rowe & John Tilbury - Cathnor.flac
Extracted successfully
Conclusion: could not qualify the source of this track
Tempfile successfully deleted.
2 -===- H:\Песеньки\lossless\keith rowe john tilbury\duos for doris 2003\Disc 2\01 Keith Rowe & John Tilbury - Olaf.flac
Extracted successfully
Conclusion: could not qualify the source of this track
Tempfile successfully deleted.
3 -===- H:\Песеньки\lossless\keith rowe john tilbury\duos for doris 2003\Disc 2\02 Keith Rowe & John Tilbury - Oxleay.flac
Extracted successfully
Conclusion: this track is CDDA with probability 100%
Tempfile successfully deleted.
Finished at: четверг, 20. 05. 2010. - 18:20.25 (operation time: 0:14.21)
 
АЧХ непонятных Audiocheckerу файлов
Any questions -> support@pro-jazz.com. По всем вопросам пишите -> support@pro-jazz.com
23:07
150
Нет комментариев. Ваш будет первым!