Вы используете незарегистрированную версию компонента "Вкладки"!

Поиск

(Free Jazz) Mario Schiano - Original Sins 1967/70 Unreleased - 1992, FLAC (tracks+.cue), lossless

(Free Jazz) Mario Schiano - Original Sins 1967/70 Unreleased - 1992, FLAC (tracks+.cue), lossless
Треклист:
Mario Schiano - Original Sins 1967/70 Unreleased
Жанр: Free Jazz
Страна-производитель диска: Italy
Год издания: 1992
Издатель (лейбл): Splasc(H) Records
Номер по каталогу: CDH 502.2
Аудиокодек: FLAC (*.flac)
Тип рипа: tracks+.cue
Битрейт аудио: lossless
Продолжительность: 56:13
Источник (релизер): собственный рип с оригинального диска.
Наличие сканов в содержимом раздачи: да
Треклист:
01. G R 4:30
Lacca
02. a 5:33
03. b 1:06
-
04. R R 3:14
Apollon
05. a 3:08
06. b 0:52
07. c 2:38
"Beat" Suite
08. 1st Set 27:53
09. 2nd Set (Finale) 4:57
-
10. Moonlight In Vermont 2:27
 
Лог создания рипа
Exact Audio Copy V1.0 beta 3 from 29. August 2011
EAC extraction logfile from 15. September 2012, 14:34
Mario Schiano / Original Sins
Used drive : TSSTcorpCDDVDW SH-S222A Adapter: 1 ID: 0
Read mode : Secure
Utilize accurate stream : Yes
Defeat audio cache : Yes
Make use of C2 pointers : No
Read offset correction : 6
Overread into Lead-In and Lead-Out : No
Fill up missing offset samples with silence : Yes
Delete leading and trailing silent blocks : No
Null samples used in CRC calculations : Yes
Used interface : Native Win32 interface for Win NT & 2000
Gap handling : Appended to previous track
Used output format : User Defined Encoder
Selected bitrate : 1024 kBit/s
Quality : High
Add ID3 tag : No
Command line compressor : C:\Tool\CD\EAC10\FLAC\FLAC.EXE
Additional command line options : -8 -V -T "ARTIST=%artist%" -T "TITLE=%title%" -T "ALBUM=%albumtitle%" -T "DATE=%year%" -T "TRACKNUMBER=%tracknr%" -T "GENRE=%genre%" -T "PERFORMER=%albuminterpret%" -T "COMPOSER=%composer%" %haslyrics%--tag-from-file=LYRICS="%lyricsfile%"%haslyrics% -T "ALBUMARTIST=%albumartist%" -T "ALBUM ARTIST=%albumartist%" -T "DISCNUMBER=%cdnumber%" -T "TOTALDISCS=%totalcds%" -T "TOTALTRACKS=%numtracks%" -T "COMMENT=EAC V1.0 beta 3, Secure Mode, Test & Copy, AccurateRip, FLAC -8" %source% -o %dest%
TOC of the extracted CD
Track | Start | Length | Start sector | End sector
---------------------------------------------------------
1 | 0:00.33 | 4:30.12 | 33 | 20294
2 | 4:30.45 | 5:33.15 | 20295 | 45284
3 | 10:03.60 | 1:05.63 | 45285 | 50222
4 | 11:09.48 | 3:14.05 | 50223 | 64777
5 | 14:23.53 | 3:08.30 | 64778 | 78907
6 | 17:32.08 | 0:51.60 | 78908 | 82792
7 | 18:23.68 | 2:37.70 | 82793 | 94637
8 | 21:01.63 | 27:52.45 | 94638 | 220082
9 | 48:54.33 | 4:57.07 | 220083 | 242364
10 | 53:51.40 | 2:26.68 | 242365 | 253382
Track 1
Filename C:\! UPLOAD\Mario Schiano - Original Sins (1992) [FLAC] {SplascH}\01 - G R.wav
Pre-gap length 0:00:02.44
Peak level 88.2 %
Extraction speed 3.4 X
Track quality 100.0 %
Test CRC E92D2B2E
Copy CRC E92D2B2E
Track not present in AccurateRip database
Copy OK
Track 2
Filename C:\! UPLOAD\Mario Schiano - Original Sins (1992) [FLAC] {SplascH}\02 - Lacca a.wav
Peak level 100.0 %
Extraction speed 3.5 X
Track quality 100.0 %
Test CRC 5690A220
Copy CRC 5690A220
Track not present in AccurateRip database
Copy OK
Track 3
Filename C:\! UPLOAD\Mario Schiano - Original Sins (1992) [FLAC] {SplascH}\03 - Lacca b.wav
Peak level 42.8 %
Extraction speed 2.5 X
Track quality 100.0 %
Test CRC 583BFFEA
Copy CRC 583BFFEA
Track not present in AccurateRip database
Copy OK
Track 4
Filename C:\! UPLOAD\Mario Schiano - Original Sins (1992) [FLAC] {SplascH}\04 - RR.wav
Peak level 46.6 %
Extraction speed 3.3 X
Track quality 100.0 %
Test CRC C64144B4
Copy CRC C64144B4
Track not present in AccurateRip database
Copy OK
Track 5
Filename C:\! UPLOAD\Mario Schiano - Original Sins (1992) [FLAC] {SplascH}\05 - Apollon a.wav
Peak level 41.7 %
Extraction speed 3.3 X
Track quality 100.0 %
Test CRC FAE30A41
Copy CRC FAE30A41
Track not present in AccurateRip database
Copy OK
Track 6
Filename C:\! UPLOAD\Mario Schiano - Original Sins (1992) [FLAC] {SplascH}\06 - Apollon b.wav
Peak level 44.6 %
Extraction speed 1.5 X
Track quality 99.7 %
Test CRC 00110988
Copy CRC 00110988
Track not present in AccurateRip database
Copy OK
Track 7
Filename C:\! UPLOAD\Mario Schiano - Original Sins (1992) [FLAC] {SplascH}\07 - Apollon c.wav
Peak level 72.4 %
Extraction speed 3.2 X
Track quality 100.0 %
Test CRC CAF71DA8
Copy CRC CAF71DA8
Track not present in AccurateRip database
Copy OK
Track 8
Filename C:\! UPLOAD\Mario Schiano - Original Sins (1992) [FLAC] {SplascH}\08 - Beat Suite 1st set.wav
Peak level 83.2 %
Extraction speed 3.8 X
Track quality 99.9 %
Test CRC DFF47D0C
Copy CRC DFF47D0C
Track not present in AccurateRip database
Copy OK
Track 9
Filename C:\! UPLOAD\Mario Schiano - Original Sins (1992) [FLAC] {SplascH}\09 - Beat Suite 2nd set (finale).wav
Peak level 72.1 %
Extraction speed 3.6 X
Track quality 100.0 %
Test CRC 665CEC4E
Copy CRC 665CEC4E
Track not present in AccurateRip database
Copy OK
Track 10
Filename C:\! UPLOAD\Mario Schiano - Original Sins (1992) [FLAC] {SplascH}\10 - Moonlight In Vermont.wav
Peak level 60.5 %
Extraction speed 2.9 X
Track quality 100.0 %
Test CRC F5AB53E4
Copy CRC F5AB53E4
Track not present in AccurateRip database
Copy OK
None of the tracks are present in the AccurateRip database
No errors occurred
End of status report
==== Log checksum 9E41BA2C7EBF0A321A2240EBB64F49C62094259C0394CC234EE5EC715FFDE3D3 ====
 
Содержание индексной карты (.CUE)
REM GENRE "Free Jazz"
REM DATE 1992
REM DISCID 750D320A
REM COMMENT "ExactAudioCopy v1.0b3"
PERFORMER "Mario Schiano"
TITLE "Original Sins"
FILE "01 - G R.wav" WAVE
TRACK 01 AUDIO
TITLE "G R"
PERFORMER "Mario Schiano"
PREGAP 00:00:33
INDEX 01 00:00:00
FILE "02 - Lacca a.wav" WAVE
TRACK 02 AUDIO
TITLE "Lacca a"
PERFORMER "Mario Schiano"
INDEX 01 00:00:00
FILE "03 - Lacca b.wav" WAVE
TRACK 03 AUDIO
TITLE "Lacca b"
PERFORMER "Mario Schiano"
INDEX 01 00:00:00
FILE "04 - RR.wav" WAVE
TRACK 04 AUDIO
TITLE "RR"
PERFORMER "Mario Schiano"
INDEX 01 00:00:00
FILE "05 - Apollon a.wav" WAVE
TRACK 05 AUDIO
TITLE "Apollon a"
PERFORMER "Mario Schiano"
INDEX 01 00:00:00
FILE "06 - Apollon b.wav" WAVE
TRACK 06 AUDIO
TITLE "Apollon b"
PERFORMER "Mario Schiano"
INDEX 01 00:00:00
FILE "07 - Apollon c.wav" WAVE
TRACK 07 AUDIO
TITLE "Apollon c"
PERFORMER "Mario Schiano"
INDEX 01 00:00:00
FILE "08 - Beat Suite 1st set.wav" WAVE
TRACK 08 AUDIO
TITLE "Beat Suite 1st set"
PERFORMER "Mario Schiano"
INDEX 01 00:00:00
FILE "09 - Beat Suite 2nd set (finale).wav" WAVE
TRACK 09 AUDIO
TITLE "Beat Suite 2nd set (finale)"
PERFORMER "Mario Schiano"
INDEX 01 00:00:00
FILE "10 - Moonlight In Vermont.wav" WAVE
TRACK 10 AUDIO
TITLE "Moonlight In Vermont"
PERFORMER "Mario Schiano"
INDEX 01 00:00:00
Доп. информация:
Recorded:
Track 1: Roma, Auditorium RAI di via Asiago, 4 marzo 1967
Tracks 2, 3: Roma, Studio della RCA Italiano, 27 novembre 1967
Track 4: Roma, Audotirium RAI di via Asiago, 30 marzo 1968
Tracks 5 to 7: Roma, AGER Film - una notte tra il 4 e il 9 febbraio 1969
Tracks 8, 9: Roma, "Beat 72" - 17 maggio 1969
Track 10: Roma, Studio "Sound Workshop", 25 aprile 1970
 
Об альбоме (by Thom Jurek)
This collection of unreleased gems by Italian sax maestro and improvisation wizard Mario Schiano offers ten different views of his artistry, vision, and unrelenting musical restlessness over a period of four very active and turbulent years. With a host of Italy's great jazz men -- such as Bruno Tommaso, Marcello Melis, Giancarlo Schiaffini, the Modern Art Trio, and others -- Schiano takes us on a tour of his various approaches to getting music out of his horns. The centerpiece of this fine album is "Beat Suite," a 32-minute exploration of all things blues and out.
Schiano's post-bop blues and modal chops are irrepressible in their taut phasing, long-reaching arpeggios, and in-the-pocket grooves. Whether using an alto, tenor, or soprano horn, he digs deep and then once the feeling is firmly established and the groove floating on its own, he heads for the outer f*cking limits -- not only of the tune being played, as in "Beat Suite," but the boundaries of where music and "pure" sound meet and exchange phone numbers. He covers the tune with transient modes and intervals, all firmly within the blues terrain, even if his solos bring in sounds from outer space to express themselves within this idiom. His emotional reach is tremendous and wrenching. His singing skeins of notes utter micro- and multi-phonics in the tongues of angels with dirty faces. And while Schiano is no doubt an intellectual when it comes to his music, he doesn't play like one; there isn't a hint of academia or tonal posturing on any track here.
The other item worth mentioning is the streaming blur of ideas and voicings on "Lacca," on which Schiano plays both alto and soprano as he goes head to head with Schiaffini on trombone. In all, this may not be a masterpiece like a Schiano album proper, but it serves as a wonderful introduction to the man's playing -- since many of the methodologies and strategies he employs here have been refined and transformed into something that merely resembles them, and it is a treasure trove for longtime fans looking to fill the holes in their collections.
 
Состав
Mario Schiano - alto saxophone, soprano saxophone
Giancarlo Schiaffini - trombone (tracks 1-3)
Marcello Melis - double bass (tracks 1-7)
Franco Pecori - drums (tracks 1, 8-10)
Bruno Biriaco - percussion (track 1)
Paul Goldfield - drums (tracks 2-3)
Franco Tonani - drums (track 4)
Marco Cristofolini - percussion, flute (tracks 5-7)
Bruno Tommaso - double bass, piano (tracks 8-10)
Any questions -> support@pro-jazz.com. По всем вопросам пишите -> support@pro-jazz.com
07:21
130
Нет комментариев. Ваш будет первым!