Вы используете незарегистрированную версию компонента "Вкладки"!

Поиск

(Free Jazz, Free Improvisation) Mario Schiano - Ecstatic - 1996, FLAC (tracks+.cue), lossless

(Free Jazz, Free Improvisation) Mario Schiano - Ecstatic - 1996, FLAC (tracks+.cue), lossless
Треклист:
Mario Schiano - Ecstatic
Жанр: Free Jazz, Free Improvisation
Страна-производитель диска: Italy
Год издания: 1996
Издатель (лейбл): Splasc(H) Records
Номер по каталогу: CDH 509.2
Аудиокодек: FLAC (*.flac)
Тип рипа: tracks+.cue
Битрейт аудио: lossless
Продолжительность: 1:05:56
Источник (релизер): собственный рип с оригинального диска.
Наличие сканов в содержимом раздачи: да
Треклист:
01. Tendenziale part one (10.03)
02. Tendenziale part two (07.34)
03. Tendenziale part three (08.51)
04. Tendenziale part four (00.39)
05. If not ecstatic we refund (18.54)
06. Uè chi vò vevere (02.31)
07. Collage (11.49)
08. Moonlight in Vermont (02.25)
09. Rita/Gli 70 (03.11)
 
Лог создания рипа
Exact Audio Copy V1.0 beta 3 from 29. August 2011
EAC extraction logfile from 18. September 2012, 18:21
Marion Schiano / Ecstatic
Used drive : TSSTcorpCDDVDW SH-S222A Adapter: 1 ID: 0
Read mode : Secure
Utilize accurate stream : Yes
Defeat audio cache : Yes
Make use of C2 pointers : No
Read offset correction : 6
Overread into Lead-In and Lead-Out : No
Fill up missing offset samples with silence : Yes
Delete leading and trailing silent blocks : No
Null samples used in CRC calculations : Yes
Used interface : Native Win32 interface for Win NT & 2000
Gap handling : Appended to previous track
Used output format : User Defined Encoder
Selected bitrate : 896 kBit/s
Quality : High
Add ID3 tag : No
Command line compressor : C:\Tool\CD\EAC10\FLAC\FLAC.EXE
Additional command line options : -6 -V -T "ARTIST=%artist%" -T "TITLE=%title%" -T "ALBUM=%albumtitle%" -T "DATE=%year%" -T "TRACKNUMBER=%tracknr%" -T "GENRE=%genre%" -T "COMMENT=%comment%" -T "BAND=%albuminterpret%" -T "COMPOSER=%composer%" %haslyrics%--tag-from-file=LYRICS="%lyricsfile%"%haslyrics% -T "DISCNUMBER=%cdnumber%" -T "TOTALDISCS=%totalcds%" -T "TOTALTRACKS=%numtracks%" %hascover%--picture="%coverfile%"%hascover% %source% -o %dest%
TOC of the extracted CD
Track | Start | Length | Start sector | End sector
---------------------------------------------------------
1 | 0:00.00 | 10:01.70 | 0 | 45144
2 | 10:01.70 | 7:34.45 | 45145 | 79239
3 | 17:36.40 | 8:51.07 | 79240 | 119071
4 | 26:27.47 | 0:51.03 | 119072 | 122899
5 | 27:18.50 | 18:43.00 | 122900 | 207124
6 | 46:01.50 | 2:31.59 | 207125 | 218508
7 | 48:33.34 | 11:49.38 | 218509 | 271721
8 | 60:22.72 | 2:25.25 | 271722 | 282621
9 | 62:48.22 | 3:11.08 | 282622 | 296954
Track 1
Filename C:\! UPLOAD\Mario Schiano - Ecstatic (1996) [FLAC] {SplascH}\01 - Tendenziale Part One.wav
Pre-gap length 0:00:02.00
Peak level 96.3 %
Extraction speed 3.4 X
Track quality 99.9 %
Test CRC 77CAE5E6
Copy CRC 77CAE5E6
Track not present in AccurateRip database
Copy OK
Track 2
Filename C:\! UPLOAD\Mario Schiano - Ecstatic (1996) [FLAC] {SplascH}\02 - Tendenziale Part Two.wav
Peak level 81.5 %
Extraction speed 3.6 X
Track quality 100.0 %
Test CRC 057D5FF5
Copy CRC 057D5FF5
Track not present in AccurateRip database
Copy OK
Track 3
Filename C:\! UPLOAD\Mario Schiano - Ecstatic (1996) [FLAC] {SplascH}\03 - Tendenziale Part Three.wav
Peak level 100.0 %
Extraction speed 3.7 X
Track quality 100.0 %
Test CRC CE68EFDC
Copy CRC CE68EFDC
Track not present in AccurateRip database
Copy OK
Track 4
Filename C:\! UPLOAD\Mario Schiano - Ecstatic (1996) [FLAC] {SplascH}\04 - Tendenziale Part Four.wav
Peak level 69.7 %
Extraction speed 2.3 X
Track quality 100.0 %
Test CRC 07E002C0
Copy CRC 07E002C0
Track not present in AccurateRip database
Copy OK
Track 5
Filename C:\! UPLOAD\Mario Schiano - Ecstatic (1996) [FLAC] {SplascH}\05 - If Not Ecstatic We Refund.wav
Pre-gap length 0:00:11.33
Peak level 69.3 %
Extraction speed 3.8 X
Track quality 100.0 %
Test CRC 11242326
Copy CRC 11242326
Track not present in AccurateRip database
Copy OK
Track 6
Filename C:\! UPLOAD\Mario Schiano - Ecstatic (1996) [FLAC] {SplascH}\06 - Ue chi vo vevere.wav
Peak level 69.5 %
Extraction speed 3.2 X
Track quality 100.0 %
Test CRC 67C74A86
Copy CRC 67C74A86
Track not present in AccurateRip database
Copy OK
Track 7
Filename C:\! UPLOAD\Mario Schiano - Ecstatic (1996) [FLAC] {SplascH}\07 - Collage.wav
Peak level 55.9 %
Extraction speed 3.4 X
Track quality 99.9 %
Test CRC 6C023FD7
Copy CRC 6C023FD7
Track not present in AccurateRip database
Copy OK
Track 8
Filename C:\! UPLOAD\Mario Schiano - Ecstatic (1996) [FLAC] {SplascH}\08 - Moonlight in Vermont.wav
Peak level 74.5 %
Extraction speed 3.1 X
Track quality 100.0 %
Test CRC 13F62E6A
Copy CRC 13F62E6A
Track not present in AccurateRip database
Copy OK
Track 9
Filename C:\! UPLOAD\Mario Schiano - Ecstatic (1996) [FLAC] {SplascH}\09 - Rita_Gli 70.wav
Peak level 55.2 %
Extraction speed 3.0 X
Track quality 100.0 %
Test CRC CE8A57D0
Copy CRC CE8A57D0
Track not present in AccurateRip database
Copy OK
None of the tracks are present in the AccurateRip database
No errors occurred
End of status report
---- CUETools DB Plugin V2.1.3
[CTDB TOCID: qbxh9_sZusGbGUtomzDyURC5fec-] disk not present in database, Submit result: qbxh9_sZusGbGUtomzDyURC5fec- has been uploaded
==== Log checksum 6DE6E1CC89B8B8E9542E3BA6894269C15E67D4BB1DFDB7F6EEF806CF77ED3586 ====
------------------------------------------------------------
Exact Audio Copy V1.0 beta 3 from 29. August 2011
EAC extraction logfile from 18. September 2012, 18:21
Marion Schiano / Ecstatic
Used drive : TSSTcorpCDDVDW SH-S222A Adapter: 1 ID: 0
Read mode : Secure
Utilize accurate stream : Yes
Defeat audio cache : Yes
Make use of C2 pointers : No
Read offset correction : 6
Overread into Lead-In and Lead-Out : No
Fill up missing offset samples with silence : Yes
Delete leading and trailing silent blocks : No
Null samples used in CRC calculations : Yes
Used interface : Native Win32 interface for Win NT & 2000
Gap handling : Appended to previous track
Used output format : User Defined Encoder
Selected bitrate : 896 kBit/s
Quality : High
Add ID3 tag : No
Command line compressor : C:\Tool\CD\EAC10\FLAC\FLAC.EXE
Additional command line options : -6 -V -T "ARTIST=%artist%" -T "TITLE=%title%" -T "ALBUM=%albumtitle%" -T "DATE=%year%" -T "TRACKNUMBER=%tracknr%" -T "GENRE=%genre%" -T "COMMENT=%comment%" -T "BAND=%albuminterpret%" -T "COMPOSER=%composer%" %haslyrics%--tag-from-file=LYRICS="%lyricsfile%"%haslyrics% -T "DISCNUMBER=%cdnumber%" -T "TOTALDISCS=%totalcds%" -T "TOTALTRACKS=%numtracks%" %hascover%--picture="%coverfile%"%hascover% %source% -o %dest%
TOC of the extracted CD
Track | Start | Length | Start sector | End sector
---------------------------------------------------------
1 | 0:00.00 | 10:01.70 | 0 | 45144
2 | 10:01.70 | 7:34.45 | 45145 | 79239
3 | 17:36.40 | 8:51.07 | 79240 | 119071
4 | 26:27.47 | 0:51.03 | 119072 | 122899
5 | 27:18.50 | 18:43.00 | 122900 | 207124
6 | 46:01.50 | 2:31.59 | 207125 | 218508
7 | 48:33.34 | 11:49.38 | 218509 | 271721
8 | 60:22.72 | 2:25.25 | 271722 | 282621
9 | 62:48.22 | 3:11.08 | 282622 | 296954
Track 1
Filename C:\! UPLOAD\Mario Schiano - Ecstatic (1996) [FLAC] {SplascH}\01 - Tendenziale Part One.wav
Pre-gap length 0:00:02.00
Peak level 96.3 %
Extraction speed 3.4 X
Track quality 99.9 %
Test CRC 77CAE5E6
Copy CRC 77CAE5E6
Track not present in AccurateRip database
Copy OK
Track 2
Filename C:\! UPLOAD\Mario Schiano - Ecstatic (1996) [FLAC] {SplascH}\02 - Tendenziale Part Two.wav
Peak level 81.5 %
Extraction speed 3.6 X
Track quality 100.0 %
Test CRC 057D5FF5
Copy CRC 057D5FF5
Track not present in AccurateRip database
Copy OK
Track 3
Filename C:\! UPLOAD\Mario Schiano - Ecstatic (1996) [FLAC] {SplascH}\03 - Tendenziale Part Three.wav
Peak level 100.0 %
Extraction speed 3.7 X
Track quality 100.0 %
Test CRC CE68EFDC
Copy CRC CE68EFDC
Track not present in AccurateRip database
Copy OK
Track 4
Filename C:\! UPLOAD\Mario Schiano - Ecstatic (1996) [FLAC] {SplascH}\04 - Tendenziale Part Four.wav
Peak level 69.7 %
Extraction speed 2.3 X
Track quality 100.0 %
Test CRC 07E002C0
Copy CRC 07E002C0
Track not present in AccurateRip database
Copy OK
Track 5
Filename C:\! UPLOAD\Mario Schiano - Ecstatic (1996) [FLAC] {SplascH}\05 - If Not Ecstatic We Refund.wav
Pre-gap length 0:00:11.33
Peak level 69.3 %
Extraction speed 3.8 X
Track quality 100.0 %
Test CRC 11242326
Copy CRC 11242326
Track not present in AccurateRip database
Copy OK
Track 6
Filename C:\! UPLOAD\Mario Schiano - Ecstatic (1996) [FLAC] {SplascH}\06 - Ue chi vo vevere.wav
Peak level 69.5 %
Extraction speed 3.2 X
Track quality 100.0 %
Test CRC 67C74A86
Copy CRC 67C74A86
Track not present in AccurateRip database
Copy OK
Track 7
Filename C:\! UPLOAD\Mario Schiano - Ecstatic (1996) [FLAC] {SplascH}\07 - Collage.wav
Peak level 55.9 %
Extraction speed 3.4 X
Track quality 99.9 %
Test CRC 6C023FD7
Copy CRC 6C023FD7
Track not present in AccurateRip database
Copy OK
Track 8
Filename C:\! UPLOAD\Mario Schiano - Ecstatic (1996) [FLAC] {SplascH}\08 - Moonlight in Vermont.wav
Peak level 74.5 %
Extraction speed 3.1 X
Track quality 100.0 %
Test CRC 13F62E6A
Copy CRC 13F62E6A
Track not present in AccurateRip database
Copy OK
Track 9
Filename C:\! UPLOAD\Mario Schiano - Ecstatic (1996) [FLAC] {SplascH}\09 - Rita_Gli 70.wav
Peak level 55.2 %
Extraction speed 3.0 X
Track quality 100.0 %
Test CRC CE8A57D0
Copy CRC CE8A57D0
Track not present in AccurateRip database
Copy OK
None of the tracks are present in the AccurateRip database
No errors occurred
End of status report
---- CUETools DB Plugin V2.1.3
[CTDB TOCID: qbxh9_sZusGbGUtomzDyURC5fec-] disk not present in database, Submit result: qbxh9_sZusGbGUtomzDyURC5fec- has been uploaded
==== Log checksum 6DE6E1CC89B8B8E9542E3BA6894269C15E67D4BB1DFDB7F6EEF806CF77ED3586 ====
 
Содержание индексной карты (.CUE)
REM GENRE Jazz
REM DATE 1996
REM DISCID 7E0F7709
REM COMMENT "ExactAudioCopy v1.0b3"
PERFORMER "Marion Schiano"
TITLE "Ecstatic"
FILE "01 - Tendenziale Part One.wav" WAVE
TRACK 01 AUDIO
TITLE "Tendenziale Part One"
PERFORMER "Marion Schiano"
INDEX 01 00:00:00
FILE "02 - Tendenziale Part Two.wav" WAVE
TRACK 02 AUDIO
TITLE "Tendenziale Part Two"
PERFORMER "Marion Schiano"
INDEX 01 00:00:00
FILE "03 - Tendenziale Part Three.wav" WAVE
TRACK 03 AUDIO
TITLE "Tendenziale Part Three"
PERFORMER "Marion Schiano"
INDEX 01 00:00:00
FILE "04 - Tendenziale Part Four.wav" WAVE
TRACK 04 AUDIO
TITLE "Tendenziale Part Four"
PERFORMER "Marion Schiano"
INDEX 01 00:00:00
TRACK 05 AUDIO
TITLE "If Not Ecstatic We Refund"
PERFORMER "Marion Schiano"
INDEX 00 00:39:45
FILE "05 - If Not Ecstatic We Refund.wav" WAVE
INDEX 01 00:00:00
FILE "06 - Ue chi vo vevere.wav" WAVE
TRACK 06 AUDIO
TITLE "Ue chi vo vevere"
PERFORMER "Marion Schiano"
INDEX 01 00:00:00
FILE "07 - Collage.wav" WAVE
TRACK 07 AUDIO
TITLE "Collage"
PERFORMER "Marion Schiano"
INDEX 01 00:00:00
FILE "08 - Moonlight in Vermont.wav" WAVE
TRACK 08 AUDIO
TITLE "Moonlight in Vermont"
PERFORMER "Marion Schiano"
INDEX 01 00:00:00
FILE "09 - Rita_Gli 70.wav" WAVE
TRACK 09 AUDIO
TITLE "Rita_Gli 70"
PERFORMER "Marion Schiano"
INDEX 01 00:00:00
Доп. информация:
Tracks 1-4 were recorded at Saxa Rubra, Rome on 20 June 1967 and originally issued on LP on Vedette VPA 8342 in 1977
Tracks 5-9 were recorded at the Sound Workshop, Rome on 25 April 1970 and originally released on LP on CEDI GLP 81027, If not ecstatic we refund.
 
Об альбоме (by Thom Jurek)
Here is a second volume in Splasc(h)'s '60s jazz reissue series -- the first being Mario Schiano's Original Sins featuring material from 1967-1970.
....No matter; despite the somewhat dodgy recording quality (a non-professional job if there ever was one) the music is awesome. The idea of free improvisation for this quartet was truly a jazz idea: themes and variations are spouted all over the place and are mostly picked up on and taken elsewhere before a new one comes into the fray. The Gruppo Romano Free Jazz band played with Schiano gently holding the wheel and steering them toward a rhythm-based improvisational language. Simply put: This is free jazz with plenty of soul.
The other tracks -- five through nine -- are actually from an album called If Not Ecstatic We Refund. These tracks amount to Gruppo Romano's rhythm section and Schiano minus Schiaffini. Here the material is improvisational and vanguard to be sure, but it is also melodically oriented toward the improvisational elements. Schiano is a supreme melodist; his lyrical ideas are based in both the blues and folk musics of antiquity, and his heart and mind come from the center of jazz innovation. The combination of these elements in Schiano's work always results in music that is challenging, forward-looking, and full of passionate warmth. Check out the title cut that goes from a tarantella to a ballad to a free blowout and back for over 18 minutes (with some nifty quotes from "India" in the middle). Also notable is the prominence of the rhythm section, especially Bruno Tommaso's bass playing, which feels like another drum most of the time, firing off pizzicato phrases in three different voices from all over the fretboard. On "Collage" and even "Moonlight in Vermont," Schiano is experimenting with tonalities -- with his actual tone of expression rather than microtonalism or overtone harmonics. In mid-solo, his embouchure will change and he will move from a rasping wail to a shimmying squeak to a smooth gospel groan, all the while keeping up with a rhythm section that is doing its best to wind one another down!
It all adds up to a further, deeper look into one of the least known -- in philistine America anyway -- yet most important improvisational voices of the 20th century.
 
Состав
Gruppo Romano Free Jazz 1966/67
Giancarlo Schiaffini - trombone, baritone, flugelhorn, ocarina
Mario Schiano - alto saxophone, soprano saxophone
Marcello Melis - bass, toy guitar
Franco Pecori - drums
Schiano Trio 1969/70
Mario Schiano - alto saxophone
Bruno Tommaso - double bass, piano
Franco Pecori - drums
Any questions -> support@pro-jazz.com. По всем вопросам пишите -> support@pro-jazz.com
07:22
114
Нет комментариев. Ваш будет первым!