Вы используете незарегистрированную версию компонента "Вкладки"!

Поиск

(free jazz) Lol Coxhill, John Edwards, Steve Noble - The Early Years 2004, FLAC (tracks+.cue), lossless

(free jazz) Lol Coxhill, John Edwards, Steve Noble - The Early Years 2004, FLAC (tracks+.cue), lossless
Треклист:


Lol Coxhill, John Edwards, Steve Noble
The Early Years 2004

Жанр: free jazz
Год выпуска: 2004
Издатель (лейбл):Ping Pong Productions / PPP003
Формат: FLAC (tracks+.cue)
Битрейт аудио: lossless
Продолжительность 56`46
Источник: what.cd, 6060842
Soprano Saxophone – Lol Coxhill
Double Bass – John Edwards
Drums, Producer – Steve Noble
Recorded London 11 January 2004 at Barefoot studios.

tracks

1 Tijuana Rendezvous 5:48
2 Episode No.1 6:30
3 Coming Through 5:07
4 Hook Point 7:47
5 The Set Up 5:59
6 Stray Dog 3:33
7 Out Of The Past 10:10
8 3 Tales 5:27
9 Endgame 6:25


 
.log
X Lossless Decoder version 20130602 (143.2)
XLD extraction logfile from 2013-07-12 10:46:22 +0400
Lol Coxhill, John Edwards, Steve Noble / The Early Years
Used drive : (null) (null) (revision (null))
Media type :
Ripper mode : XLD Secure Ripper
Disable audio cache : OK for the drive with a cache less than 1375KiB
Make use of C2 pointers : NO
Read offset correction : 6
Max retry count : 100
Gap status : Analyzed, Appended (except HTOA)
TOC of the extracted CD
Track | Start | Length | Start sector | End sector
---------------------------------------------------------
1 | 00:00:00 | 05:47:62 | 0 | 26086
2 | 05:47:62 | 06:30:25 | 26087 | 55361
3 | 12:18:12 | 05:07:36 | 55362 | 78422
4 | 17:25:48 | 07:46:56 | 78423 | 113428
5 | 25:12:29 | 05:59:20 | 113429 | 140373
6 | 31:11:49 | 03:33:06 | 140374 | 156354
7 | 34:44:55 | 10:09:65 | 156355 | 202094
8 | 44:54:45 | 05:26:58 | 202095 | 226602
9 | 50:21:28 | 06:25:00 | 226603 | 255477
AccurateRip Summary
Disc not found in AccurateRip DB.
All Tracks
Album gain : -0.22 dB
Peak : 0.970825
Statistics
Read error : 0
Jitter error (maybe fixed) : 0
Retry sector count : 0
Damaged sector count : 0
Track 01
Filename : /Users/anch/Music/FLAC/Lol Coxhill, John Edwards, Steve Noble - 2004 - The Early Years [MP3 320]/01 - Tijuana Rendezvous.mp3
/Users/anch/Music/FLAC/Lol Coxhill, John Edwards, Steve Noble - 2004 - The Early Years [MP3 V0]/01 - Tijuana Rendezvous.mp3
/Users/anch/Music/FLAC/Lol Coxhill, John Edwards, Steve Noble - 2004 - The Early Years [FLAC]/01 - Tijuana Rendezvous.flac
Pre-gap length : 00:02:00
Track gain : 1.19 dB
Peak : 0.970825
CRC32 hash (test run) : 4D7AA4E5
CRC32 hash : 4D7AA4E5
CRC32 hash (skip zero) : 3F4AF609
AccurateRip v1 signature : CE2F8811
AccurateRip v2 signature : F60BA79C
->Track not present in AccurateRip database.
Statistics
Read error : 0
Jitter error (maybe fixed) : 0
Retry sector count : 0
Damaged sector count : 0
Track 02
Filename : /Users/anch/Music/FLAC/Lol Coxhill, John Edwards, Steve Noble - 2004 - The Early Years [MP3 320]/02 - Episode #1.mp3
/Users/anch/Music/FLAC/Lol Coxhill, John Edwards, Steve Noble - 2004 - The Early Years [MP3 V0]/02 - Episode #1.mp3
/Users/anch/Music/FLAC/Lol Coxhill, John Edwards, Steve Noble - 2004 - The Early Years [FLAC]/02 - Episode #1.flac
Pre-gap length : 00:03:47
Track gain : 0.32 dB
Peak : 0.966034
CRC32 hash (test run) : 721FDF40
CRC32 hash : 721FDF40
CRC32 hash (skip zero) : 6595D36C
AccurateRip v1 signature : 1050F311
AccurateRip v2 signature : 38F809C0
->Track not present in AccurateRip database.
Statistics
Read error : 0
Jitter error (maybe fixed) : 0
Retry sector count : 0
Damaged sector count : 0
Track 03
Filename : /Users/anch/Music/FLAC/Lol Coxhill, John Edwards, Steve Noble - 2004 - The Early Years [MP3 320]/03 - Coming Through.mp3
/Users/anch/Music/FLAC/Lol Coxhill, John Edwards, Steve Noble - 2004 - The Early Years [MP3 V0]/03 - Coming Through.mp3
/Users/anch/Music/FLAC/Lol Coxhill, John Edwards, Steve Noble - 2004 - The Early Years [FLAC]/03 - Coming Through.flac
Pre-gap length : 00:07:70
Track gain : 3.76 dB
Peak : 0.965942
CRC32 hash (test run) : 01E8EEFA
CRC32 hash : 01E8EEFA
CRC32 hash (skip zero) : 4218D058
AccurateRip v1 signature : C03B2E1E
AccurateRip v2 signature : 839DC901
->Track not present in AccurateRip database.
Statistics
Read error : 0
Jitter error (maybe fixed) : 0
Retry sector count : 0
Damaged sector count : 0
Track 04
Filename : /Users/anch/Music/FLAC/Lol Coxhill, John Edwards, Steve Noble - 2004 - The Early Years [MP3 320]/04 - Hook Point.mp3
/Users/anch/Music/FLAC/Lol Coxhill, John Edwards, Steve Noble - 2004 - The Early Years [MP3 V0]/04 - Hook Point.mp3
/Users/anch/Music/FLAC/Lol Coxhill, John Edwards, Steve Noble - 2004 - The Early Years [FLAC]/04 - Hook Point.flac
Pre-gap length : 00:05:63
Track gain : 0.11 dB
Peak : 0.965942
CRC32 hash (test run) : 66079A20
CRC32 hash : 66079A20
CRC32 hash (skip zero) : 39DB7C92
AccurateRip v1 signature : 617B59D4
AccurateRip v2 signature : C01A0052
->Track not present in AccurateRip database.
Statistics
Read error : 0
Jitter error (maybe fixed) : 0
Retry sector count : 0
Damaged sector count : 0
Track 05
Filename : /Users/anch/Music/FLAC/Lol Coxhill, John Edwards, Steve Noble - 2004 - The Early Years [MP3 320]/05 - The Set Up.mp3
/Users/anch/Music/FLAC/Lol Coxhill, John Edwards, Steve Noble - 2004 - The Early Years [MP3 V0]/05 - The Set Up.mp3
/Users/anch/Music/FLAC/Lol Coxhill, John Edwards, Steve Noble - 2004 - The Early Years [FLAC]/05 - The Set Up.flac
Pre-gap length : 00:04:70
Track gain : -1.73 dB
Peak : 0.965973
CRC32 hash (test run) : A218C8F5
CRC32 hash : A218C8F5
CRC32 hash (skip zero) : FC5FCD38
AccurateRip v1 signature : C24AD3DF
AccurateRip v2 signature : B1FC0C6E
->Track not present in AccurateRip database.
Statistics
Read error : 0
Jitter error (maybe fixed) : 0
Retry sector count : 0
Damaged sector count : 0
Track 06
Filename : /Users/anch/Music/FLAC/Lol Coxhill, John Edwards, Steve Noble - 2004 - The Early Years [MP3 320]/06 - Stray Dog.mp3
/Users/anch/Music/FLAC/Lol Coxhill, John Edwards, Steve Noble - 2004 - The Early Years [MP3 V0]/06 - Stray Dog.mp3
/Users/anch/Music/FLAC/Lol Coxhill, John Edwards, Steve Noble - 2004 - The Early Years [FLAC]/06 - Stray Dog.flac
Pre-gap length : 00:02:35
Track gain : -2.18 dB
Peak : 0.965027
CRC32 hash (test run) : 00832144
CRC32 hash : 00832144
CRC32 hash (skip zero) : 0D9A08E0
AccurateRip v1 signature : 585C3B39
AccurateRip v2 signature : AEAEDFA0
->Track not present in AccurateRip database.
Statistics
Read error : 0
Jitter error (maybe fixed) : 0
Retry sector count : 0
Damaged sector count : 0
Track 07
Filename : /Users/anch/Music/FLAC/Lol Coxhill, John Edwards, Steve Noble - 2004 - The Early Years [MP3 320]/07 - Out Of The Past.mp3
/Users/anch/Music/FLAC/Lol Coxhill, John Edwards, Steve Noble - 2004 - The Early Years [MP3 V0]/07 - Out Of The Past.mp3
/Users/anch/Music/FLAC/Lol Coxhill, John Edwards, Steve Noble - 2004 - The Early Years [FLAC]/07 - Out Of The Past.flac
Pre-gap length : 00:04:07
Track gain : 1.07 dB
Peak : 0.965851
CRC32 hash (test run) : C7EF6F87
CRC32 hash : C7EF6F87
CRC32 hash (skip zero) : BE9C5946
AccurateRip v1 signature : 45ADB166
AccurateRip v2 signature : 3A8A57E5
->Track not present in AccurateRip database.
Statistics
Read error : 0
Jitter error (maybe fixed) : 0
Retry sector count : 0
Damaged sector count : 0
Track 08
Filename : /Users/anch/Music/FLAC/Lol Coxhill, John Edwards, Steve Noble - 2004 - The Early Years [MP3 320]/08 - 3 Tales.mp3
/Users/anch/Music/FLAC/Lol Coxhill, John Edwards, Steve Noble - 2004 - The Early Years [MP3 V0]/08 - 3 Tales.mp3
/Users/anch/Music/FLAC/Lol Coxhill, John Edwards, Steve Noble - 2004 - The Early Years [FLAC]/08 - 3 Tales.flac
Pre-gap length : 00:07:18
Track gain : 0.45 dB
Peak : 0.788757
CRC32 hash (test run) : 7A728B06
CRC32 hash : 7A728B06
CRC32 hash (skip zero) : A64FBAC1
AccurateRip v1 signature : EBDB9ECB
AccurateRip v2 signature : 4969E1A0
->Track not present in AccurateRip database.
Statistics
Read error : 0
Jitter error (maybe fixed) : 0
Retry sector count : 0
Damaged sector count : 0
Track 09
Filename : /Users/anch/Music/FLAC/Lol Coxhill, John Edwards, Steve Noble - 2004 - The Early Years [MP3 320]/09 - Endgame.mp3
/Users/anch/Music/FLAC/Lol Coxhill, John Edwards, Steve Noble - 2004 - The Early Years [MP3 V0]/09 - Endgame.mp3
/Users/anch/Music/FLAC/Lol Coxhill, John Edwards, Steve Noble - 2004 - The Early Years [FLAC]/09 - Endgame.flac
Pre-gap length : 00:04:30
Track gain : -1.55 dB
Peak : 0.966064
CRC32 hash (test run) : 6664037A
CRC32 hash : 6664037A
CRC32 hash (skip zero) : 71B838FE
AccurateRip v1 signature : 2BB89AFF
AccurateRip v2 signature : 440DD8ED
->Track not present in AccurateRip database.
Statistics
Read error : 0
Jitter error (maybe fixed) : 0
Retry sector count : 0
Damaged sector count : 0
No errors occurred
End of status report
 
.cue
TITLE "The Early Years"
PERFORMER "Lol Coxhill, John Edwards, Steve Noble"
REM GENRE "Free Jazz"
REM DATE "2004"
REM DISCNUMBER 1
REM TOTALDISCS 1
REM DISCID 76000009
REM REPLAYGAIN_ALBUM_GAIN -0.22 dB
REM REPLAYGAIN_ALBUM_PEAK 0.970825
FILE "01 - Tijuana Rendezvous.flac" WAVE
TRACK 01 AUDIO
TITLE "Tijuana Rendezvous"
PERFORMER "Lol Coxhill, John Edwards, Steve Noble"
REM REPLAYGAIN_TRACK_GAIN 1.19 dB
REM REPLAYGAIN_TRACK_PEAK 0.970825
INDEX 01 00:00:00
TRACK 02 AUDIO
TITLE "Episode №1"
PERFORMER "Lol Coxhill, John Edwards, Steve Noble"
REM REPLAYGAIN_TRACK_GAIN 0.32 dB
REM REPLAYGAIN_TRACK_PEAK 0.966034
INDEX 00 05:44:15
FILE "02 - Episode #1.flac" WAVE
INDEX 01 00:00:00
TRACK 03 AUDIO
TITLE "Coming Through"
PERFORMER "Lol Coxhill, John Edwards, Steve Noble"
REM REPLAYGAIN_TRACK_GAIN 3.76 dB
REM REPLAYGAIN_TRACK_PEAK 0.965942
INDEX 00 06:22:30
FILE "03 - Coming Through.flac" WAVE
INDEX 01 00:00:00
TRACK 04 AUDIO
TITLE "Hook Point"
PERFORMER "Lol Coxhill, John Edwards, Steve Noble"
REM REPLAYGAIN_TRACK_GAIN 0.11 dB
REM REPLAYGAIN_TRACK_PEAK 0.965942
INDEX 00 05:01:48
FILE "04 - Hook Point.flac" WAVE
INDEX 01 00:00:00
TRACK 05 AUDIO
TITLE "The Set Up"
PERFORMER "Lol Coxhill, John Edwards, Steve Noble"
REM REPLAYGAIN_TRACK_GAIN -1.73 dB
REM REPLAYGAIN_TRACK_PEAK 0.965973
INDEX 00 07:41:61
FILE "05 - The Set Up.flac" WAVE
INDEX 01 00:00:00
TRACK 06 AUDIO
TITLE "Stray Dog"
PERFORMER "Lol Coxhill, John Edwards, Steve Noble"
REM REPLAYGAIN_TRACK_GAIN -2.18 dB
REM REPLAYGAIN_TRACK_PEAK 0.965027
INDEX 00 05:56:60
FILE "06 - Stray Dog.flac" WAVE
INDEX 01 00:00:00
TRACK 07 AUDIO
TITLE "Out Of The Past"
PERFORMER "Lol Coxhill, John Edwards, Steve Noble"
REM REPLAYGAIN_TRACK_GAIN 1.07 dB
REM REPLAYGAIN_TRACK_PEAK 0.965851
INDEX 00 03:28:74
FILE "07 - Out Of The Past.flac" WAVE
INDEX 01 00:00:00
TRACK 08 AUDIO
TITLE "3 Tales"
PERFORMER "Lol Coxhill, John Edwards, Steve Noble"
REM REPLAYGAIN_TRACK_GAIN 0.45 dB
REM REPLAYGAIN_TRACK_PEAK 0.788757
INDEX 00 10:02:47
FILE "08 - 3 Tales.flac" WAVE
INDEX 01 00:00:00
TRACK 09 AUDIO
TITLE "Endgame"
PERFORMER "Lol Coxhill, John Edwards, Steve Noble"
REM REPLAYGAIN_TRACK_GAIN -1.55 dB
REM REPLAYGAIN_TRACK_PEAK 0.966064
INDEX 00 05:22:28
FILE "09 - Endgame.flac" WAVE
INDEX 01 00:00:00

другие релизы
По всем вопросам пишите личное сообщение пользователю M0p94ok.
17:01
166
Нет комментариев. Ваш будет первым!