Вы используете незарегистрированную версию компонента "Вкладки"!

Поиск

(free jazz) Dave Rempis, Tim Daisy - Back to the Circle 2005, FLAC (tracks+.cue), lossless

Треклист:


Dave Rempis, Tim Daisy - Back to the Circle 2005

Жанр: free jazz
Год выпуска: 2005
Издатель (лейбл):Okka Disk / ODL 10008
Формат: FLAC (tracks+.cue)
Битрейт аудио: lossless
Продолжительность 42`29
Источник: what.cd, 6060842
Drums – Tim Daisy
Saxophone [Saxophones], Design [Cover] – Dave Rempis

tracks

1 Welcome 05:35
2 Alexandria 08:40
3 Upwards Onwards 04:15
4 Back To The Circle 07:45
5 Huff 06:40
6 Clockwise 03:07
7 Fast Cars 06:04


 
.log
X Lossless Decoder version 20130602 (143.2)
XLD extraction logfile from 2013-07-11 00:37:47 +0400
Dave Rempis, Tim Daisy / Back to the Circle
Used drive : HL-DT-ST DVDRW GX30N (revision RP09)
Media type : Pressed CD
Ripper mode : XLD Secure Ripper
Disable audio cache : OK for the drive with a cache less than 1375KiB
Make use of C2 pointers : NO
Read offset correction : 6
Max retry count : 100
Gap status : Analyzed, Appended (except HTOA)
TOC of the extracted CD
Track | Start | Length | Start sector | End sector
---------------------------------------------------------
1 | 00:00:00 | 05:37:43 | 0 | 25317
2 | 05:37:43 | 08:43:18 | 25318 | 64560
3 | 14:20:61 | 04:19:52 | 64561 | 84037
4 | 18:40:38 | 07:49:00 | 84038 | 119212
5 | 26:29:38 | 06:43:32 | 119213 | 149469
6 | 33:12:70 | 03:11:22 | 149470 | 163816
7 | 36:24:17 | 06:04:47 | 163817 | 191163
List of alternate offset correction values
# | Absolute | Relative | Confidence
------------------------------------------
1 | 0 | -6 | 2
AccurateRip Summary (DiscID: 000c2b8d-0048784c-5f09f407)
Track 01 : OK (v1, confidence 2/2, with different offset)
Track 02 : OK (v1, confidence 2/2, with different offset)
Track 03 : OK (v1, confidence 2/2, with different offset)
Track 04 : OK (v1, confidence 2/2, with different offset)
Track 05 : OK (v1, confidence 2/2, with different offset)
Track 06 : OK (v1, confidence 2/2, with different offset)
Track 07 : OK (v1, confidence 2/2, with different offset)
->All tracks accurately ripped.
All Tracks
Album gain : -3.09 dB
Peak : 1.000000
Statistics
Read error : 0
Jitter error (maybe fixed) : 0
Retry sector count : 0
Damaged sector count : 0
Track 01
Filename : /Users/anch/Music/FLAC/Dave Rempis, Tim Daisy - 2005 - Back to the Circle [MP3 320]/01 - Welcome.mp3
/Users/anch/Music/FLAC/Dave Rempis, Tim Daisy - 2005 - Back to the Circle [MP3 V0]/01 - Welcome.mp3
/Users/anch/Music/FLAC/Dave Rempis, Tim Daisy - 2005 - Back to the Circle [FLAC]/01 - Welcome.flac
Pre-gap length : 00:02:00
Track gain : -2.51 dB
Peak : 0.999969
CRC32 hash (test run) : 97430624
CRC32 hash : 97430624
CRC32 hash (skip zero) : 1C7A0BC2
AccurateRip v1 signature : F95EEF8D (1C72DF8E w/correction)
AccurateRip v2 signature : 689EB84F
->Accurately ripped with different offset (v1, confidence 2/2, offset -6)
Statistics
Read error : 0
Jitter error (maybe fixed) : 0
Retry sector count : 0
Damaged sector count : 0
Track 02
Filename : /Users/anch/Music/FLAC/Dave Rempis, Tim Daisy - 2005 - Back to the Circle [MP3 320]/02 - Alexandria.mp3
/Users/anch/Music/FLAC/Dave Rempis, Tim Daisy - 2005 - Back to the Circle [MP3 V0]/02 - Alexandria.mp3
/Users/anch/Music/FLAC/Dave Rempis, Tim Daisy - 2005 - Back to the Circle [FLAC]/02 - Alexandria.flac
Pre-gap length : 00:01:45
Track gain : -4.77 dB
Peak : 0.999969
CRC32 hash (test run) : 9B39C278
CRC32 hash : 9B39C278
CRC32 hash (skip zero) : 1E93F093
AccurateRip v1 signature : F2F9B248 (855AFD8C w/correction)
AccurateRip v2 signature : 16C9559C
->Accurately ripped with different offset (v1, confidence 2/2, offset -6)
Statistics
Read error : 0
Jitter error (maybe fixed) : 0
Retry sector count : 0
Damaged sector count : 0
Track 03
Filename : /Users/anch/Music/FLAC/Dave Rempis, Tim Daisy - 2005 - Back to the Circle [MP3 320]/03 - Upwards Onwards.mp3
/Users/anch/Music/FLAC/Dave Rempis, Tim Daisy - 2005 - Back to the Circle [MP3 V0]/03 - Upwards Onwards.mp3
/Users/anch/Music/FLAC/Dave Rempis, Tim Daisy - 2005 - Back to the Circle [FLAC]/03 - Upwards Onwards.flac
Pre-gap length : 00:01:45
Track gain : -1.63 dB
Peak : 0.999908
CRC32 hash (test run) : C8961E4E
CRC32 hash : C8961E4E
CRC32 hash (skip zero) : D96E890F
AccurateRip v1 signature : 60864C80 (B753A5D5 w/correction)
AccurateRip v2 signature : DDD6AA37
->Accurately ripped with different offset (v1, confidence 2/2, offset -6)
Statistics
Read error : 0
Jitter error (maybe fixed) : 0
Retry sector count : 0
Damaged sector count : 0
Track 04
Filename : /Users/anch/Music/FLAC/Dave Rempis, Tim Daisy - 2005 - Back to the Circle [MP3 320]/04 - Back To The Circle.mp3
/Users/anch/Music/FLAC/Dave Rempis, Tim Daisy - 2005 - Back to the Circle [MP3 V0]/04 - Back To The Circle.mp3
/Users/anch/Music/FLAC/Dave Rempis, Tim Daisy - 2005 - Back to the Circle [FLAC]/04 - Back To The Circle.flac
Pre-gap length : 00:01:45
Track gain : -2.27 dB
Peak : 1.000000
CRC32 hash (test run) : BB10C2BE
CRC32 hash : BB10C2BE
CRC32 hash (skip zero) : E372A265
AccurateRip v1 signature : BFD791E0 (0911E825 w/correction)
AccurateRip v2 signature : B262AD37
->Accurately ripped with different offset (v1, confidence 2/2, offset -6)
Statistics
Read error : 0
Jitter error (maybe fixed) : 0
Retry sector count : 0
Damaged sector count : 0
Track 05
Filename : /Users/anch/Music/FLAC/Dave Rempis, Tim Daisy - 2005 - Back to the Circle [MP3 320]/05 - Huff.mp3
/Users/anch/Music/FLAC/Dave Rempis, Tim Daisy - 2005 - Back to the Circle [MP3 V0]/05 - Huff.mp3
/Users/anch/Music/FLAC/Dave Rempis, Tim Daisy - 2005 - Back to the Circle [FLAC]/05 - Huff.flac
Pre-gap length : 00:01:45
Track gain : -0.24 dB
Peak : 0.999969
CRC32 hash (test run) : 81D4E886
CRC32 hash : 81D4E886
CRC32 hash (skip zero) : 6227F1D8
AccurateRip v1 signature : 7C22B216 (30054E5F w/correction)
AccurateRip v2 signature : 1DE68F80
->Accurately ripped with different offset (v1, confidence 2/2, offset -6)
Statistics
Read error : 0
Jitter error (maybe fixed) : 0
Retry sector count : 0
Damaged sector count : 0
Track 06
Filename : /Users/anch/Music/FLAC/Dave Rempis, Tim Daisy - 2005 - Back to the Circle [MP3 320]/06 - Clockwise.mp3
/Users/anch/Music/FLAC/Dave Rempis, Tim Daisy - 2005 - Back to the Circle [MP3 V0]/06 - Clockwise.mp3
/Users/anch/Music/FLAC/Dave Rempis, Tim Daisy - 2005 - Back to the Circle [FLAC]/06 - Clockwise.flac
Pre-gap length : 00:01:45
Track gain : -1.17 dB
Peak : 0.999847
CRC32 hash (test run) : 21D8D231
CRC32 hash : 21D8D231
CRC32 hash (skip zero) : 10B2EB52
AccurateRip v1 signature : E4600AB0 (ECC9DC99 w/correction)
AccurateRip v2 signature : 1A0E10C7
->Accurately ripped with different offset (v1, confidence 2/2, offset -6)
Statistics
Read error : 0
Jitter error (maybe fixed) : 0
Retry sector count : 0
Damaged sector count : 0
Track 07
Filename : /Users/anch/Music/FLAC/Dave Rempis, Tim Daisy - 2005 - Back to the Circle [MP3 320]/07 - Fast Cars.mp3
/Users/anch/Music/FLAC/Dave Rempis, Tim Daisy - 2005 - Back to the Circle [MP3 V0]/07 - Fast Cars.mp3
/Users/anch/Music/FLAC/Dave Rempis, Tim Daisy - 2005 - Back to the Circle [FLAC]/07 - Fast Cars.flac
Pre-gap length : 00:01:45
Track gain : -3.64 dB
Peak : 0.999969
CRC32 hash (test run) : 29B303FE
CRC32 hash : 29B303FE
CRC32 hash (skip zero) : 922ECCF6
AccurateRip v1 signature : FABFB236 (A03AD7A3 w/correction)
AccurateRip v2 signature : EE56B83F
->Accurately ripped with different offset (v1, confidence 2/2, offset -6)
Statistics
Read error : 0
Jitter error (maybe fixed) : 0
Retry sector count : 0
Damaged sector count : 0
No errors occurred
End of status report
 
.cue
TITLE "Back to the Circle"
PERFORMER "Dave Rempis, Tim Daisy"
REM GENRE "Free Jazz"
REM DATE "2005"
REM DISCNUMBER 1
REM TOTALDISCS 1
REM DISCID 5F09F407
REM REPLAYGAIN_ALBUM_GAIN -3.09 dB
REM REPLAYGAIN_ALBUM_PEAK 1.000000
FILE "01 - Welcome.flac" WAVE
TRACK 01 AUDIO
TITLE "Welcome"
PERFORMER "Dave Rempis, Tim Daisy"
SONGWRITER "Dave Rempis, Tim Daisy"
FLAGS DCP
REM REPLAYGAIN_TRACK_GAIN -2.51 dB
REM REPLAYGAIN_TRACK_PEAK 0.999969
INDEX 01 00:00:00
TRACK 02 AUDIO
TITLE "Alexandria"
PERFORMER "Dave Rempis, Tim Daisy"
SONGWRITER "Dave Rempis, Tim Daisy"
FLAGS DCP
REM REPLAYGAIN_TRACK_GAIN -4.77 dB
REM REPLAYGAIN_TRACK_PEAK 0.999969
INDEX 00 05:35:73
FILE "02 - Alexandria.flac" WAVE
INDEX 01 00:00:00
TRACK 03 AUDIO
TITLE "Upwards Onwards"
PERFORMER "Dave Rempis, Tim Daisy"
SONGWRITER "Dave Rempis, Tim Daisy"
FLAGS DCP
REM REPLAYGAIN_TRACK_GAIN -1.63 dB
REM REPLAYGAIN_TRACK_PEAK 0.999908
INDEX 00 08:41:48
FILE "03 - Upwards Onwards.flac" WAVE
INDEX 01 00:00:00
TRACK 04 AUDIO
TITLE "Back To The Circle"
PERFORMER "Dave Rempis, Tim Daisy"
SONGWRITER "Dave Rempis, Tim Daisy"
FLAGS DCP
REM REPLAYGAIN_TRACK_GAIN -2.27 dB
REM REPLAYGAIN_TRACK_PEAK 1.000000
INDEX 00 04:18:07
FILE "04 - Back To The Circle.flac" WAVE
INDEX 01 00:00:00
TRACK 05 AUDIO
TITLE "Huff"
PERFORMER "Dave Rempis, Tim Daisy"
SONGWRITER "Dave Rempis, Tim Daisy"
FLAGS DCP
REM REPLAYGAIN_TRACK_GAIN -0.24 dB
REM REPLAYGAIN_TRACK_PEAK 0.999969
INDEX 00 07:47:30
FILE "05 - Huff.flac" WAVE
INDEX 01 00:00:00
TRACK 06 AUDIO
TITLE "Clockwise"
PERFORMER "Dave Rempis, Tim Daisy"
SONGWRITER "Dave Rempis, Tim Daisy"
FLAGS DCP
REM REPLAYGAIN_TRACK_GAIN -1.17 dB
REM REPLAYGAIN_TRACK_PEAK 0.999847
INDEX 00 06:41:62
FILE "06 - Clockwise.flac" WAVE
INDEX 01 00:00:00
TRACK 07 AUDIO
TITLE "Fast Cars"
PERFORMER "Dave Rempis, Tim Daisy"
SONGWRITER "Dave Rempis, Tim Daisy"
FLAGS DCP
REM REPLAYGAIN_TRACK_GAIN -3.64 dB
REM REPLAYGAIN_TRACK_PEAK 0.999969
INDEX 00 03:09:52
FILE "07 - Fast Cars.flac" WAVE
INDEX 01 00:00:00

другие релизы
По всем вопросам пишите личное сообщение пользователю M0p94ok.
17:02
163
Нет комментариев. Ваш будет первым!