Вы используете незарегистрированную версию компонента "Вкладки"!

Поиск

(free jazz, Leo Records) [cd] Frank Gratkowski, Benjamin Weidekamp, Christian Weidner, Florian Bergmann: Fou[u]r Alto - 4 compositions by frank gratkowski (2012), FLAC (tracks+.cue), lossless

(free jazz, Leo Records) [cd] Frank Gratkowski, Benjamin Weidekamp, Christian Weidner, Florian Bergmann: Fou[u]r Alto - 4 compositions by frank gratkowski (2012), FLAC (tracks+.cue), lossless
Треклист:
(free jazz, Leo Records) [cd] Frank Gratkowski, Benjamin Weidekamp, Christian Weidner, Florian Bergmann: Fou[ u ]r Alto - 4 compositions by frank gratkowski (2012), FLAC (tracks+.cue), lossless


Frank Gratkowski, Benjamin Weidekamp, Christian Weidner, Florian Bergmann
Fou[ u ]r Alto - 4 compositions by frank gratkowski (2012)
Жанр: free jazz
Год выпуска: 2012
Издатель (лейбл):Leo Records / LR 652
Формат: FLAC (tracks+.cue)
Битрейт аудио: lossless
Продолжительность
Источник: what.cd
Alto Saxophone – Frank Gratkowski, Benjamin Weidekamp, Christian Weidner, Florian Bergmann

tracks

1 TamTam 4a 15:20
2 Molto Fluttuante 11:38
3 Likewise 4:37
4 Sound 1 31:10


 
.log

Код:
Exact Audio Copy V1.0 beta 3 from 29. August 2011
EAC extraction logfile from 15. January 2016, 1:02
Fo[u]r Alto / 4 compositions by Frank Gratkowski
Used drive  : PLDS    DVD-RW DS8A8SH   Adapter: 0  ID: 0
Read mode               : Secure
Utilize accurate stream : Yes
Defeat audio cache      : Yes
Make use of C2 pointers : No
Read offset correction                      : 6
Overread into Lead-In and Lead-Out          : No
Fill up missing offset samples with silence : Yes
Delete leading and trailing silent blocks   : No
Null samples used in CRC calculations       : Yes
Used interface                              : Native Win32 interface for Win NT & 2000
Gap handling                                : Appended to previous track
Used output format              : User Defined Encoder
Selected bitrate                : 1024 kBit/s
Quality                         : High
Add ID3 tag                     : Yes
Command line compressor         : C:\Program Files (x86)\Exact Audio Copy\Flac\flac.exe
Additional command line options : -8 -e -V -T "ARTIST=%artist%" -T "TITLE=%title%" -T "ALBUM=%albumtitle%" -T "DATE=%year%" -T "TRACKNUMBER=%tracknr%" -T "GENRE=%genre%" -T "PERFORMER=%albuminterpret%" -T "COMPOSER=%composer%" %haslyrics%--tag-from-file=LYRICS="%lyricsfile%"%haslyrics% -T "ALBUMARTIST=%albumartist%" -T "DISCNUMBER=%cdnumber%" -T "TOTALDISCS=%totalcds%" -T "TOTALTRACKS=%numtracks%" -T "COMMENT=%comment%" %source% -o %dest%
TOC of the extracted CD
     Track |   Start  |  Length  | Start sector | End sector
    ---------------------------------------------------------
        1  |  0:00.00 | 15:20.65 |         0    |    69064
        2  | 15:20.65 | 11:38.11 |     69065    |   121425
        3  | 26:59.01 |  4:35.62 |    121426    |   142112
        4  | 31:34.63 | 31:10.74 |    142113    |   282436
Track  1
     Filename M:\Music\What.cd\Fou[u]r Alto - 4 compositions by frank gratkowski (2012) [FLAC]\01 - TamTam 4a.wav
     Pre-gap length  0:00:02.00
     Peak level 97.7 %
     Extraction speed 2.9 X
     Track quality 100.0 %
     Test CRC 3B548842
     Copy CRC 3B548842
     Accurately ripped (confidence 1)  [CE413602]  (AR v2)
     Copy OK
Track  2
     Filename M:\Music\What.cd\Fou[u]r Alto - 4 compositions by frank gratkowski (2012) [FLAC]\02 - Molto Fluttuante.wav
     Peak level 98.0 %
     Extraction speed 3.4 X
     Track quality 99.9 %
     Test CRC 3E7BC7BB
     Copy CRC 3E7BC7BB
     Accurately ripped (confidence 1)  [E6660761]  (AR v2)
     Copy OK
Track  3
     Filename M:\Music\What.cd\Fou[u]r Alto - 4 compositions by frank gratkowski (2012) [FLAC]\03 - Likewise.wav
     Peak level 97.7 %
     Extraction speed 3.7 X
     Track quality 100.0 %
     Test CRC D44BF805
     Copy CRC D44BF805
     Accurately ripped (confidence 1)  [18D86371]  (AR v2)
     Copy OK
Track  4
     Filename M:\Music\What.cd\Fou[u]r Alto - 4 compositions by frank gratkowski (2012) [FLAC]\04 - Sound 1.wav
     Peak level 96.9 %
     Extraction speed 4.9 X
     Track quality 100.0 %
     Test CRC 7B5F1848
     Copy CRC 7B5F1848
     Accurately ripped (confidence 1)  [E4D49AB9]  (AR v2)
     Copy OK
All tracks accurately ripped
No errors occurred
End of status report
---- CUETools DB Plugin V2.1.3
[CTDB TOCID: sqIXmNmV0.zwHvSxoq3mmY9z16A-] found, Submit result: sqIXmNmV0.zwHvSxoq3mmY9z16A- has been confirmed
[dfeba3d6] (1/1) Accurately ripped
==== Log checksum FAD94B929BA935ECAB33750310CA3E5F568C3DECC1AE5039C019696E4F0AE075 ====
 
.cue

Код:
REM DATE 2012
REM DISCID 310EB504
REM COMMENT "ExactAudioCopy v1.0b3"
PERFORMER "Frank Gratkowski, Benjamin Weidekamp, Christian Weidner, Florian Bergmann"
TITLE "Fou[u]r Alto - 4 compositions by frank gratkowski"
FILE "01 - TamTam 4a.wav" WAVE
  TRACK 01 AUDIO
    TITLE "TamTam 4a"
    PERFORMER "Frank Gratkowski, Benjamin Weidekamp, Christian Weidner, Florian Bergmann"
    INDEX 01 00:00:00
FILE "02 - Molto Fluttuante.wav" WAVE
  TRACK 02 AUDIO
    TITLE "Molto Fluttuante"
    PERFORMER "Frank Gratkowski, Benjamin Weidekamp, Christian Weidner, Florian Bergmann"
    INDEX 01 00:00:00
FILE "03 - Likewise.wav" WAVE
  TRACK 03 AUDIO
    TITLE "Likewise"
    PERFORMER "Frank Gratkowski, Benjamin Weidekamp, Christian Weidner, Florian Bergmann"
    INDEX 01 00:00:00
FILE "04 - Sound 1.wav" WAVE
  TRACK 04 AUDIO
    TITLE "Sound 1"
    PERFORMER "Frank Gratkowski, Benjamin Weidekamp, Christian Weidner, Florian Bergmann"
    INDEX 01 00:00:00

другие релизы
По всем вопросам пишите личное сообщение пользователю M0p94ok.
18:25
239
Нет комментариев. Ваш будет первым!