Вы используете незарегистрированную версию компонента "Вкладки"!

Поиск

(Free Jazz) konstruKt with Peter Brotzmann - Eklisia Sunday - 2013, FLAC (tracks+.cue), lossless

(Free Jazz) konstruKt with Peter Brotzmann - Eklisia Sunday - 2013, FLAC (tracks+.cue), lossless
Треклист:
konstruKt with Peter Brötzmann / Eklisia Sunday
Жанр: Free Jazz
Страна-производитель диска: Poland
Год издания: 2013
Издатель (лейбл): Nottwo
Номер по каталогу: MW 891-2
Аудиокодек: FLAC (*.flac)
Тип рипа: tracks+.cue
Битрейт аудио: lossless
Продолжительность: 55:44
Источник (релизер): what.cd (6060842)
Наличие сканов в содержимом раздачи: нет
Треклист:
1. Part I (14:13)
2. Part II (9:12)
3. Part III (22:36)
4. Part IV (9:41)
 
Лог создания рипа
X Lossless Decoder version 20130407 (143.0)
XLD extraction logfile from 2013-05-19 01:48:03 +0400
Konstrukt, Peter Brötzmann / Eklisia Sunday
Used drive : HL-DT-ST DVDRW GX30N (revision RP09)
Media type : Pressed CD
Ripper mode : XLD Secure Ripper
Disable audio cache : OK for the drive with a cache less than 1375KiB
Make use of C2 pointers : NO
Read offset correction : 6
Max retry count : 20
Gap status : Analyzed, Appended
TOC of the extracted CD
Track | Start | Length | Start sector | End sector
---------------------------------------------------------
1 | 00:00:00 | 14:15:28 | 0 | 64152
2 | 14:15:28 | 09:14:52 | 64153 | 105754
3 | 23:30:05 | 22:38:65 | 105755 | 207669
4 | 46:08:70 | 09:41:13 | 207670 | 251257
AccurateRip Summary
Disc not found in AccurateRip DB.
All Tracks
Album gain : -0.98 dB
Peak : 0.990723
Statistics
Read error : 0
Jitter error (maybe fixed) : 0
Retry sector count : 0
Damaged sector count : 0
Track 01
Filename : /Users/anch/Music/FLAC/Konstrukt, Peter Brotzmann - 2013 - Eklisia Sunday [FLAC]/01 - Part I.flac
/Users/anch/Music/FLAC/Konstrukt, Peter Brotzmann - 2013 - Eklisia Sunday [MP3 320]/01 - Part I.mp3
/Users/anch/Music/FLAC/Konstrukt, Peter Brotzmann - 2013 - Eklisia Sunday [MP3 V0]/01 - Part I.mp3
Pre-gap length : 00:02:00
Track gain : -0.26 dB
Peak : 0.967285
CRC32 hash (test run) : BCEC4B53
CRC32 hash : BCEC4B53
CRC32 hash (skip zero) : AE32514B
AccurateRip v1 signature : 490EB18A
AccurateRip v2 signature : 11BEC876
->Track not present in AccurateRip database.
Statistics
Read error : 0
Jitter error (maybe fixed) : 0
Retry sector count : 0
Damaged sector count : 0
Track 02
Filename : /Users/anch/Music/FLAC/Konstrukt, Peter Brotzmann - 2013 - Eklisia Sunday [FLAC]/02 - Part II.flac
/Users/anch/Music/FLAC/Konstrukt, Peter Brotzmann - 2013 - Eklisia Sunday [MP3 320]/02 - Part II.mp3
/Users/anch/Music/FLAC/Konstrukt, Peter Brotzmann - 2013 - Eklisia Sunday [MP3 V0]/02 - Part II.mp3
Pre-gap length : 00:02:00
Track gain : -2.52 dB
Peak : 0.990723
CRC32 hash (test run) : A3CD1122
CRC32 hash : A3CD1122
CRC32 hash (skip zero) : 841BE4D9
AccurateRip v1 signature : 90208565
AccurateRip v2 signature : 095E6692
->Track not present in AccurateRip database.
Statistics
Read error : 0
Jitter error (maybe fixed) : 0
Retry sector count : 0
Damaged sector count : 0
Track 03
Filename : /Users/anch/Music/FLAC/Konstrukt, Peter Brotzmann - 2013 - Eklisia Sunday [FLAC]/03 - Part III.flac
/Users/anch/Music/FLAC/Konstrukt, Peter Brotzmann - 2013 - Eklisia Sunday [MP3 320]/03 - Part III.mp3
/Users/anch/Music/FLAC/Konstrukt, Peter Brotzmann - 2013 - Eklisia Sunday [MP3 V0]/03 - Part III.mp3
Pre-gap length : 00:02:00
Track gain : 0.12 dB
Peak : 0.989380
CRC32 hash (test run) : 28E51340
CRC32 hash : 28E51340
CRC32 hash (skip zero) : 792386C6
AccurateRip v1 signature : BFCAF47C
AccurateRip v2 signature : 30A498BE
->Track not present in AccurateRip database.
Statistics
Read error : 0
Jitter error (maybe fixed) : 0
Retry sector count : 0
Damaged sector count : 0
Track 04
Filename : /Users/anch/Music/FLAC/Konstrukt, Peter Brotzmann - 2013 - Eklisia Sunday [FLAC]/04 - Part IV.flac
/Users/anch/Music/FLAC/Konstrukt, Peter Brotzmann - 2013 - Eklisia Sunday [MP3 320]/04 - Part IV.mp3
/Users/anch/Music/FLAC/Konstrukt, Peter Brotzmann - 2013 - Eklisia Sunday [MP3 V0]/04 - Part IV.mp3
Pre-gap length : 00:02:00
Track gain : -0.63 dB
Peak : 0.960938
CRC32 hash (test run) : 00757E68
CRC32 hash : 00757E68
CRC32 hash (skip zero) : EFA395F2
AccurateRip v1 signature : 6F7EDA04
AccurateRip v2 signature : 8F63D7B4
->Track not present in AccurateRip database.
Statistics
Read error : 0
Jitter error (maybe fixed) : 0
Retry sector count : 0
Damaged sector count : 0
No errors occurred
End of status report
 
Содержание индексной карты (.CUE)
TITLE "Eklisia Sunday"
PERFORMER "Konstrukt, Peter Brötzmann"
REM GENRE "Free Jazz"
REM DATE "2013"
REM DISCNUMBER 1
REM TOTALDISCS 1
REM DISCID 2E0D1604
REM REPLAYGAIN_ALBUM_GAIN -0.98 dB
REM REPLAYGAIN_ALBUM_PEAK 0.990723
FILE "01 - Part I.flac" WAVE
TRACK 01 AUDIO
TITLE "Part I"
PERFORMER "Konstrukt, Peter Brötzmann"
REM REPLAYGAIN_TRACK_GAIN -0.26 dB
REM REPLAYGAIN_TRACK_PEAK 0.967285
INDEX 01 00:00:00
TRACK 02 AUDIO
TITLE "Part II"
PERFORMER "Konstrukt, Peter Brötzmann"
REM REPLAYGAIN_TRACK_GAIN -2.52 dB
REM REPLAYGAIN_TRACK_PEAK 0.990723
INDEX 00 14:13:28
FILE "02 - Part II.flac" WAVE
INDEX 01 00:00:00
TRACK 03 AUDIO
TITLE "Part III"
PERFORMER "Konstrukt, Peter Brötzmann"
REM REPLAYGAIN_TRACK_GAIN 0.12 dB
REM REPLAYGAIN_TRACK_PEAK 0.989380
INDEX 00 09:12:52
FILE "03 - Part III.flac" WAVE
INDEX 01 00:00:00
TRACK 04 AUDIO
TITLE "Part IV"
PERFORMER "Konstrukt, Peter Brötzmann"
REM REPLAYGAIN_TRACK_GAIN -0.63 dB
REM REPLAYGAIN_TRACK_PEAK 0.960938
INDEX 00 22:36:65
FILE "04 - Part IV.flac" WAVE
INDEX 01 00:00:00
 
Об альбоме (сборнике)
The Turkish free jazz outfit konstruKt might be considered the most evolved improvisational band working in jazz today. Founded, not in the hotbeds of jazz, London, New York, Chicago, Wuppertal, or Krakow, their isolation is the key to their success. Well, isolation and observation.
Although this band was formed in 2008, their free jazz ears date back to the 1960s. The band has absorbed the lessons of John Coltrane's Interstellar Space (Impulse!, 1967), Peter Brotzmann's Machine Gun (FMP, 1968), and more recent works by Ivo Perelman, William Parker, and Joe McPhee. This live disc was recorded in May 2011 in Gümüşlük, Turkey, and reunites the quartet with Peter Brötzmann, their guest from a 2008 recording Dolunay (re:konstruKt, 2010). The quartet's basic lineup of Korhan Futaci (saxophone), Umut Çağlar (electric guitar), Özün Usta (bass), and Korhan Argüden (drums) is augmented here by an additional bassist, guitar, piano, and saxophone. That said this large-ish ensemble, to KonstruKt's credit, makes much more than noisy energy jazz. The music is presented in four lengthy parts, each with a nuggets (maybe blocks) of artful music making. The disc opens with a saxophone (I'm guessing it's Futaci) wandering among his quartet before Usta's djembe drum sets the pulse. While the large ensemble slowly joins in, the structure of the piece remains. A coherent groove and consistent energy is sustained, as the piece burns itself into exhaustion, some gentle guitar notes are played over delicate reed work. The longest piece, "Part III" (22:36) is a nomadic opus. The piece sustains a shamanistic energy through percussion, bells, double electric guitars, and ever-spiraling- upward saxophones. The rhapsodic vibe throughout organizes and highlights this excellent date. ~ mark corroto, allaboutjazz.com, april 8, 2013
 
Состав
Peter Brötzmann - tenor saxophone, alto saxophone, clarinet
Hüseyin Ertunç - acoustic piano, küstüfon, gong
Doğan Doğusel - double bass, küstüfon
Barlas Tan Özemek - electric guitar
Korhan Futaci - tenor saxophone,soprano saxophone
Umut Çağlar - electric guitar
Özün Usta - double bass, djembe, gong, bells
Korhan Argüden - drums, old k zildjian cymbals
Any questions -> support@pro-jazz.com. По всем вопросам пишите -> support@pro-jazz.com
20:05
166
Нет комментариев. Ваш будет первым!