Вы используете незарегистрированную версию компонента "Вкладки"!

Поиск

(Avant-Garde Jazz, Free Funk) Music Revelation Ensemble - In the Name of... (feat. Blythe, Rivers & Bluiett) - 1994, FLAC (tracks+.cue), lossless

Треклист:
Music Revelation Ensemble / In the Name of...
Жанр: Avant-Garde Jazz, Free Funk
Год издания: 1994
Издатель (лейбл): DIW/Columbia / Sony Music Distribution
Номер по каталогу: CK 67101
Страна: USA
Аудиокодек: FLAC (*.flac)
Тип рипа: tracks+.cue
Битрейт аудио: lossless
Продолжительность: 00:59:06
Источник (релизер): what.cd
Наличие сканов в содержимом раздачи: да
Треклист:
1. In Time
2. Non-Believer
3. The Dawn
4. Mankind
5. Help
6. Abundance
7. Purity
 
Лог создания рипа
EAC extraction logfile from 17. September 2008, 11:20 for CD
Music Revelation Ensemble / In The Name Of...
Used drive : TOSHIBA DVD-ROM SD-M1612 Adapter: 1 ID: 0
Read mode : Secure with NO C2, accurate stream, disable cache
Read offset correction : -472
Overread into Lead-In and Lead-Out : No
Used output format : C:\Program Files\Exact Audio Copy\flac.exe (User Defined Encoder)
224 kBit/s
Additional command line options : -8 -V -T "artist=%a" -T "title=%t" -T "album=%g" -T "date=%y" -T "tracknumber=%n" -T "genre=%m" %s
Other options :
Fill up missing offset samples with silence : Yes
Delete leading and trailing silent blocks : No
Installed external ASPI interface
Track 1
Filename H:\BT-UP\Music Revelation Ensemble - In The Name Of\01 - In Time.wav
Pre-gap length 0:00:02.00
Peak level 100.0 %
Track quality 100.0 %
Test CRC 8D4BB760
Copy CRC 8D4BB760
Copy OK
Track 2
Filename H:\BT-UP\Music Revelation Ensemble - In The Name Of\02 - Non-Believer.wav
Peak level 100.0 %
Track quality 100.0 %
Test CRC 49532544
Copy CRC 49532544
Copy OK
Track 3
Filename H:\BT-UP\Music Revelation Ensemble - In The Name Of\03 - The Dawn.wav
Peak level 100.0 %
Track quality 100.0 %
Test CRC 8A6BEB9D
Copy CRC 8A6BEB9D
Copy OK
Track 4
Filename H:\BT-UP\Music Revelation Ensemble - In The Name Of\04 - Mankind.wav
Peak level 93.2 %
Track quality 99.9 %
Test CRC 0049781A
Copy CRC 0049781A
Copy OK
Track 5
Filename H:\BT-UP\Music Revelation Ensemble - In The Name Of\05 - Help.wav
Pre-gap length 0:00:00.01
Peak level 84.3 %
Track quality 99.9 %
Test CRC B8F8FCB9
Copy CRC B8F8FCB9
Copy OK
Track 6
Filename H:\BT-UP\Music Revelation Ensemble - In The Name Of\06 - Abundance.wav
Pre-gap length 0:00:00.01
Peak level 94.8 %
Track quality 100.0 %
Test CRC 093EE30F
Copy CRC 093EE30F
Copy OK
Track 7
Filename H:\BT-UP\Music Revelation Ensemble - In The Name Of\07 - Purity.wav
Pre-gap length 0:00:00.01
Peak level 95.8 %
Track quality 99.9 %
Test CRC 1C461CDB
Copy CRC 1C461CDB
Copy OK
No errors occured
End of status report
 
Содержание индексной карты (.CUE)
REM GENRE Jazz
REM DATE 1994
REM DISCID 560DDA07
REM COMMENT "ExactAudioCopy v0.95b4"
PERFORMER "Music Revelation Ensemble"
TITLE "In The Name Of..."
FILE "01 In Time.wav" WAVE
TRACK 01 AUDIO
TITLE "In Time"
PERFORMER "Music Revelation Ensemble"
INDEX 01 00:00:00
FILE "02 Non-Believer.flac" WAVE
TRACK 02 AUDIO
TITLE "Non-Believer"
PERFORMER "Music Revelation Ensemble"
INDEX 01 00:00:00
FILE "03 The Dawn.wav" WAVE
TRACK 03 AUDIO
TITLE "The Dawn"
PERFORMER "Music Revelation Ensemble"
INDEX 01 00:00:00
FILE "04 Mankind.flac" WAVE
TRACK 04 AUDIO
TITLE "Mankind"
PERFORMER "Music Revelation Ensemble"
INDEX 01 00:00:00
TRACK 05 AUDIO
TITLE "Help"
PERFORMER "Music Revelation Ensemble"
INDEX 00 09:28:09
FILE "05 Help.wav" WAVE
INDEX 01 00:00:00
TRACK 06 AUDIO
TITLE "Abundance"
PERFORMER "Music Revelation Ensemble"
INDEX 00 08:36:74
FILE "06 Abundance.wav" WAVE
INDEX 01 00:00:00
TRACK 07 AUDIO
TITLE "Purity"
PERFORMER "Music Revelation Ensemble"
INDEX 00 06:13:02
FILE "07 Purity.wav" WAVE
INDEX 01 00:00:00
 
Об альбоме (сборнике)
Guitarist James Blood Ulmer, whose "harmolodic" approach has given him a reputation as one of the most radically inventive artists on the jazz scene today, leads this eclectic ensemble through a set that combines elements of rock, blues, funk and free jazz. Bassist Amin Ali and drummer Cornell W. Rochester complete the regular cast, while saxophonists Arthur Blythe, Sam Rivers and Hamiet Bluiett all make guest appearances. Together they create an immense wall of free-form sound that has as much in common with the experimental noise-rock of Sonic Youth and Glenn Branca as it does with traditional jazz. All seven tracks find Ali and Rochester ably holding down the complex rhythmic foundations of the erratic compositions, while Ulmer's guitar trades off with the guest horns on dizzying, light-speed solos, moving in and out of unison as their flights of fancy dictate. The extremely busy soloing and dissonant arrangements may prove taxing for casual jazz fans, but In the Name Of... is sure to please fans of the free jazz sound. by Bret Love
 
Состав
James Blood Ulmer - Guitar, Composer, Producer
Amin Ali - Electric Bass
Cornell W. Rochester - Drums
Arthur Blythe (tracks: 2, 6, 7) - Alto Sax
Hamiet Bluiett (tracks: 3) - Baritone Sax
Sam Rivers (tracks: 1) - Soprano Sax, (tracks: 4) - Flute, (tracks: 5) - Tenor Sax
Any questions -> support@pro-jazz.com. По всем вопросам пишите -> support@pro-jazz.com
20:05
195
Нет комментариев. Ваш будет первым!