Поиск

(Free Jazz, Klezmer, Tzadik) John Zorn - Masada Live - 1994, APE (image+.cue), lossless

(Free Jazz, Klezmer, Tzadik) John Zorn - Masada Live - 1994, APE (image+.cue), lossless
Треклист:
John Zorn - Masada Live
Жанр: Free Jazz, Klezmer, Tzadik
Год выпуска диска: 1994
Производитель диска: Германия
Аудио кодек: APE
Тип рипа: image+.cue
Битрейт аудио: lossless
Продолжительность: 1:11:45
Трэклист:
1. Piram 8:05
2. Karaim 11:31
3. Lachish 2:32
4. Ashnah 7:17
5. Tahah 7:01
6. Katzaz 3:14
7. Ravayah 4:01
8. Hobah 10:14
9. Bithaiveth 13:48
10. Sheloshim 3:56
Masada:
John Zorn alto saxophone
Dave Douglas trumpet
Greg Cohen bass
Kenny Wollesen drumsДоп. информация: Записано в Нью-Йорке в 1994 году. Обращаю внимание слушателей на то, что барабанит не Joey Baron, а Kenny Wollesen.
Вообще-то этот диск к "Цадику" отношения не имеет никакого, он выпущен компанией "Jazz Door", явки и пароли которой в свободном доступе мне не попались. По косвенным сведениям из сети она находится в Германии или Голландии, штрих-код на коробке - немецкий. Диск я покупал, кажется, не то в Польше, не то в Чехии, так что вполне возможно, что германских пиратов в свою очередь ободрали западно-славянские, очень уж лаконичное оформление.
 
Отчёт EAC
Exact Audio Copy V0.99 prebeta 4 from 23. January 2008
Отчёт EAC об извлечении, выполненном 24. мая 2009, 20:26
John Zorn / Masada Live
Дисковод: ASUS DRW-20B1LT Adapter: 0 ID: 0
Режим чтения : Достоверность
Использование точного потока : Да
Отключение кэша аудио : Да
Использование указателей C2 : Нет
Коррекция смещения при чтении : 6
Способность читать области Lead-in и Lead-out : Нет
Заполнение пропущенных сэмплов тишиной : Да
Удаление блоков с тишиной в начале и конце : Нет
При вычислениях CRC использовались нулевые сэмплы : Да
Интерфейс : Установленный внешний ASPI-интерфейс
Выходной формат : Внутренние WAV-операции
Формат сэмплов : 44.100 Гц; 16 бит; стерео
TOC извлечённого CD
Трек | Старт | Длительность | Начальный сектор | Конечный сектор
---------------------------------------------------------------------
1 | 0:00.00 | 8:05.07 | 0 | 36381
2 | 8:05.07 | 11:31.25 | 36382 | 88231
3 | 19:36.32 | 2:32.52 | 88232 | 99683
4 | 22:09.09 | 7:17.03 | 99684 | 132461
5 | 29:26.12 | 7:01.62 | 132462 | 164098
6 | 36:27.74 | 3:14.50 | 164099 | 178698
7 | 39:42.49 | 4:01.58 | 178699 | 196831
8 | 43:44.32 | 10:14.40 | 196832 | 242921
9 | 53:58.72 | 13:48.50 | 242922 | 305071
10 | 67:47.47 | 3:57.00 | 305072 | 322846
Характеристики диапазона извлечения и сообщения об ошибках
Выбранный диапазон
Имя файла D:\черновики\John Zorn - Masada Live\John Zorn - Masada Live.wav
Пиковый уровень 99.9 %
Качество диапазона 100.0 %
CRC копии 08B3BA84
Копирование... OK
Ошибок не произошло
AccurateRip: сводка
Трек 1 точное извлечение (доверие 1) [22EF48D3]
Трек 2 точное извлечение (доверие 1) [EFF1C8AB]
Трек 3 точное извлечение (доверие 1) [99C49AA1]
Трек 4 точное извлечение (доверие 1) [AAAD14DF]
Трек 5 точное извлечение (доверие 1) [FD184171]
Трек 6 точное извлечение (доверие 1) [F7326935]
Трек 7 точное извлечение (доверие 1) [3AFCD393]
Трек 8 точное извлечение (доверие 1) [87CFC386]
Трек 9 точное извлечение (доверие 1) [581807BF]
Трек 10 точное извлечение (доверие 1) [700451EA]
Все треки извлечены точно
Конец отчёта
 
Отчёт audiocheckera
AUDIOCHECKER v1.2 - by Dester - opdester@freemail.hu
~~~~~~~~~~~~~~~~~
1 -===- D:\черновики\John Zorn - Masada Live\John Zorn - Masada Live.ape
Extracted successfully
Conclusion: This track looks like CDDA with probability 100%
Download available for power users only.
06:24
191
Нет комментариев. Ваш будет первым!