Поиск

(Free Jazz, Klezmer, Tzadik) John Zorn - Masada 50th Birthday Celebration vol.7 - 2004

(Free Jazz, Klezmer, Tzadik) John Zorn - Masada 50th Birthday Celebration vol.7 - 2004
Треклист:
John Zorn - Masada 50th Birthday Celebration vol.7
Жанр: Free Jazz, Klezmer, Tzadik
Год выпуска диска: 2004
Производитель диска: Россия
Аудио кодек: APE
Тип рипа: image+.cue
Битрейт аудио: lossless
Продолжительность: 1:07:26
Трэклист:
karaim 1 14:29
5:18 2 hath-arob
sippur 3 3:58
9:13 4 acharei mot
kedushah 5 9:16
4:33 6 ravayah
piram 7 12:20
8:19 8 ashnah
Masada:
John Zorn alto saxophone
Dave Douglas trumpet
Greg Cohen bass
Joey Baron drums
Доп. информация: записано во время выступления в клубе Tonic 18 сентября 2003
 
Отчёт EAC
Exact Audio Copy V0.99 prebeta 4 from 23. January 2008
Отчёт EAC об извлечении, выполненном 23. мая 2009, 9:31
John Zorn / Masada: 50th Birthday Celebration vol.7
Дисковод: ASUS DRW-20B1LT Adapter: 0 ID: 0
Режим чтения : Достоверность
Использование точного потока : Да
Отключение кэша аудио : Да
Использование указателей C2 : Нет
Коррекция смещения при чтении : 6
Способность читать области Lead-in и Lead-out : Нет
Заполнение пропущенных сэмплов тишиной : Да
Удаление блоков с тишиной в начале и конце : Нет
При вычислениях CRC использовались нулевые сэмплы : Да
Интерфейс : Установленный внешний ASPI-интерфейс
Выходной формат : Внутренние WAV-операции
Формат сэмплов : 44.100 Гц; 16 бит; стерео
TOC извлечённого CD
Трек | Старт | Длительность | Начальный сектор | Конечный сектор
---------------------------------------------------------------------
1 | 0:00.00 | 14:28.51 | 0 | 65150
2 | 14:28.51 | 5:18.12 | 65151 | 89012
3 | 19:46.63 | 3:57.47 | 89013 | 106834
4 | 23:44.35 | 9:12.55 | 106835 | 148289
5 | 32:57.15 | 9:16.36 | 148290 | 190025
6 | 42:13.51 | 4:32.71 | 190026 | 210496
7 | 46:46.47 | 12:19.74 | 210497 | 265995
8 | 59:06.46 | 8:19.49 | 265996 | 303469
Характеристики диапазона извлечения и сообщения об ошибках
Выбранный диапазон
Имя файла D:\черновики\John Zorn - Masada 50th Birthday Celebration vol.7\John Zorn - Masada 50th Birthday Celebration vol.7.wav
Пиковый уровень 100.0 %
Качество диапазона 99.9 %
CRC копии F867E995
Копирование... OK
Ошибок не произошло
AccurateRip: сводка
Трек 1 точность не определена (достоверность 1) [0BAD4D9B], AccurateRip вернул [6D67A3B7]
Трек 2 точность не определена (достоверность 1) [25867FF0], AccurateRip вернул [BA35A160]
Трек 3 точность не определена (достоверность 1) [8E986811], AccurateRip вернул [D81E41F6]
Трек 4 точность не определена (достоверность 1) [47B3B34D], AccurateRip вернул [A88B8785]
Трек 5 точность не определена (достоверность 1) [4DC3F735], AccurateRip вернул [A1A25F74]
Трек 6 точность не определена (достоверность 1) [8B083D36], AccurateRip вернул [A1A46777]
Трек 7 точность не определена (достоверность 1) [02D8FDBB], AccurateRip вернул [685CD0EE]
Трек 8 точность не определена (достоверность 1) [FC5A0CF2], AccurateRip вернул [685393F6]
Ни один трек не прошёл проверки на точность
В вашей базе может быть иной вариант штамповки диска
Конец отчёта
 
Отчёт Audiocheckera
AUDIOCHECKER v1.2 - by Dester - opdester@freemail.hu
~~~~~~~~~~~~~~~~~
1 -===- D:\черновики\John Zorn - Masada 50th Birthday Celebration vol.7\John Zorn - Masada 50th Birthday Celebration vol.7.ape
Extracted successfully
Conclusion: This track looks like CDDA with probability 100%
По всем вопросам пишите личное сообщение пользователю M0p94ok.
06:23
191
Нет комментариев. Ваш будет первым!